  0
SECTION
  2
HEADER
  9
$ACADVER
  1
AC1009
  9
$DWGCODEPAGE
  3
dos932
  9
$INSBASE
 10
0.0
 20
0.0
 30
0.0
  9
$EXTMIN
 10
-100.0
 20
0.0
 30
0.0
  9
$EXTMAX
 10
100.0
 20
554.262713
 30
0.0
  9
$LIMMIN
 10
-100.0
 20
0.0
  9
$LIMMAX
 10
100.0
 20
554.262713
  9
$ORTHOMODE
 70
     0
  9
$REGENMODE
 70
     1
  9
$FILLMODE
 70
     1
  9
$QTEXTMODE
 70
     0
  9
$MIRRTEXT
 70
     1
  9
$DRAGMODE
 70
     2
  9
$LTSCALE
 40
1.0
  9
$OSMODE
 70
     0
  9
$ATTMODE
 70
     1
  9
$TEXTSIZE
 40
4.1656
  9
$TRACEWID
 40
0.05
  9
$TEXTSTYLE
  7
MX_NOTE_STANDARD
  9
$CLAYER
  8
LY_1
  9
$CELTYPE
  6
CONTINUOUS
  9
$CECOLOR
 62
   256
  9
$DIMSCALE
 40
1.0
  9
$DIMASZ
 40
2.5
  9
$DIMEXO
 40
0.5
  9
$DIMDLI
 40
3.75
  9
$DIMRND
 40
0.0
  9
$DIMDLE
 40
0.0
  9
$DIMEXE
 40
1.0
  9
$DIMTP
 40
0.0
  9
$DIMTM
 40
0.0
  9
$DIMTXT
 40
2.5
  9
$DIMCEN
 40
2.5
  9
$DIMTSZ
 40
0.0
  9
$DIMTOL
 70
     0
  9
$DIMLIM
 70
     0
  9
$DIMTIH
 70
     0
  9
$DIMTOH
 70
     0
  9
$DIMSE1
 70
     0
  9
$DIMSE2
 70
     0
  9
$DIMTAD
 70
     1
  9
$DIMZIN
 70
     8
  9
$DIMBLK
  1

  9
$DIMASO
 70
     1
  9
$DIMSHO
 70
     1
  9
$DIMPOST
  1

  9
$DIMAPOST
  1

  9
$DIMALT
 70
     0
  9
$DIMALTD
 70
     4
  9
$DIMALTF
 40
0.03937
  9
$DIMLFAC
 40
1.0
  9
$DIMTOFL
 70
     1
  9
$DIMTVP
 40
0.0
  9
$DIMTIX
 70
     0
  9
$DIMSOXD
 70
     0
  9
$DIMSAH
 70
     0
  9
$DIMBLK1
  1

  9
$DIMBLK2
  1

  9
$DIMSTYLE
  2
MXDIMSTYLE
  9
$DIMCLRD
 70
     0
  9
$DIMCLRE
 70
     0
  9
$DIMCLRT
 70
     0
  9
$DIMTFAC
 40
1.0
  9
$DIMGAP
 40
1.0
  9
$LUNITS
 70
     2
  9
$LUPREC
 70
     4
  9
$AXISMODE
 70
     0
  9
$AXISUNIT
 10
0.0
 20
0.0
  9
$SKETCHINC
 40
0.1
  9
$FILLETRAD
 40
0.0
  9
$AUNITS
 70
     0
  9
$AUPREC
 70
     0
  9
$MENU
  1
acad
  9
$ELEVATION
 40
0.0
  9
$PELEVATION
 40
0.0
  9
$THICKNESS
 40
0.0
  9
$LIMCHECK
 70
     0
  9
$BLIPMODE
 70
     1
  9
$CHAMFERA
 40
0.0
  9
$CHAMFERB
 40
0.0
  9
$SKPOLY
 70
     0
  9
$TDCREATE
 40
2453885.424502315
  9
$TDUPDATE
 40
2453885.424502315
  9
$TDINDWG
 40
0.0000000000
  9
$TDUSRTIMER
 40
0.0000000000
  9
$USRTIMER
 70
     1
  9
$ANGBASE
 50
0.0
  9
$ANGDIR
 70
     0
  9
$PDMODE
 70
     0
  9
$PDSIZE
 40
0.0
  9
$PLINEWID
 40
0.0
  9
$COORDS
 70
     1
  9
$SPLFRAME
 70
     0
  9
$SPLINETYPE
 70
     6
  9
$SPLINESEGS
 70
     8
  9
$ATTDIA
 70
     0
  9
$ATTREQ
 70
     1
  9
$HANDLING
 70
     1
  9
$HANDSEED
  5
4C7
  9
$SURFTAB1
 70
     6
  9
$SURFTAB2
 70
     6
  9
$SURFTYPE
 70
     6
  9
$SURFU
 70
     6
  9
$SURFV
 70
     6
  9
$UCSNAME
  2

  9
$UCSORG
 10
0.0
 20
0.0
 30
0.0
  9
$UCSXDIR
 10
1.0
 20
0.0
 30
0.0
  9
$UCSYDIR
 10
0.0
 20
1.0
 30
0.0
  9
$PUCSNAME
  2

  9
$PUCSORG
 10
0.0
 20
0.0
 30
0.0
  9
$PUCSXDIR
 10
1.0
 20
0.0
 30
0.0
  9
$PUCSYDIR
 10
0.0
 20
1.0
 30
0.0
  9
$USERI1
 70
     0
  9
$USERI2
 70
     0
  9
$USERI3
 70
     0
  9
$USERI4
 70
     0
  9
$USERI5
 70
     0
  9
$USERR1
 40
0.0
  9
$USERR2
 40
0.0
  9
$USERR3
 40
0.0
  9
$USERR4
 40
0.0
  9
$USERR5
 40
0.0
  9
$WORLDVIEW
 70
     1
  9
$SHADEDGE
 70
     3
  9
$SHADEDIF
 70
    70
  9
$TILEMODE
 70
     1
  9
$MAXACTVP
 70
    16
  9
$PINSBASE
 10
0.0
 20
0.0
 30
0.0
  9
$PLIMCHECK
 70
     0
  9
$PEXTMIN
 10
1.000000E+20
 20
1.000000E+20
 30
1.000000E+20
  9
$PEXTMAX
 10
-1.000000E+20
 20
-1.000000E+20
 30
-1.000000E+20
  9
$PLIMMIN
 10
0.0
 20
0.0
  9
$PLIMMAX
 10
12.0
 20
9.0
  9
$UNITMODE
 70
     0
  9
$VISRETAIN
 70
     0
  9
$PLINEGEN
 70
     1
  9
$PSLTSCALE
 70
     0
  9
$TREEDEPTH
 70
  3020
  9
$DWGCODEPAGE
  3
dos932
  0
ENDSEC
  0
SECTION
  2
TABLES
  0
TABLE
  2
VPORT
 70
     1
  0
VPORT
  2
*ACTIVE
 70
     0
 10
0.0
 20
0.0
 11
1.0
 21
1.0
 12
0.0
 22
277.131356
 13
0.0
 23
0.0
 14
1.0
 24
1.0
 15
0.0
 25
0.0
 16
0.0
 26
0.0
 36
1.0
 17
0.0
 27
0.0
 37
0.0
 40
559.80534
 41
1.732051
 42
50.0
 43
0.0
 44
0.0
 50
0.0
 51
0.0
 71
     0
 72
   100
 73
     1
 74
     1
 75
     0
 76
     0
 77
     0
 78
     0
  0
ENDTAB
  0
TABLE
  2
LTYPE
 70
     3
  0
LTYPE
  2
CONTINUOUS
 70
    64
  3
Solid line
 72
    65
 73
     0
 40
0.0
  0
LTYPE
  2
CENTER
 70
    64
  3
Center ____ _ ____ _ ____ _ ____ _ ____ _ ____
 72
    65
 73
     4
 40
50.8
 49
31.75
 49
-6.35
 49
6.35
 49
-6.35
  0
LTYPE
  2
DASHED
 70
    64
  3
Dashed __ __ __ __ __ __ __ __ __ __ __ __ __ _
 72
    65
 73
     2
 40
19.05
 49
12.7
 49
-6.35
  0
ENDTAB
  0
TABLE
  2
LAYER
 70
     3
  0
LAYER
  2
0
 70
     0
 62
     7
  6
CONTINUOUS
  0
LAYER
  2
LY_1
 70
     0
 62
     7
  6
CONTINUOUS
  0
LAYER
  2
DEFPOINTS
 70
     0
 62
     7
  6
CONTINUOUS
  0
ENDTAB
  0
TABLE
  2
STYLE
 70
     6
  0
STYLE
  2
MX_NOTE_STANDARD
 70
     0
 40
0.0
 41
1.0
 50
0.0
 71
     0
 42
4.1656
  3
txt.shx
  4
extfont.shx
  0
STYLE
  2
MX_DIMTXSTY_1
 70
     0
 40
0.0
 41
1.055
 50
0.0
 71
     0
 42
4.1656
  3
txt.shx
  4
extfont.shx
  0
STYLE
  2
MX_DIMTXSTY_2
 70
     0
 40
0.0
 41
1.205
 50
0.0
 71
     0
 42
4.1656
  3
txt.shx
  4
extfont.shx
  0
STYLE
  2
MX_DIMTXSTY_3
 70
     0
 40
0.0
 41
1.125
 50
0.0
 71
     0
 42
4.1656
  3
txt.shx
  4
extfont.shx
  0
STYLE
  2
MX_DIMTXSTY_4
 70
     0
 40
0.0
 41
0.937
 50
0.0
 71
     0
 42
4.1656
  3
txt.shx
  4
extfont.shx
  0
STYLE
  2
MX_DIMTXSTY_5
 70
     0
 40
0.0
 41
1.023
 50
0.0
 71
     0
 42
4.1656
  3
txt.shx
  4
extfont.shx
  0
ENDTAB
  0
TABLE
  2
VIEW
 70
     0
  0
ENDTAB
  0
TABLE
  2
UCS
 70
     0
  0
ENDTAB
  0
TABLE
  2
APPID
 70
     1
  0
APPID
  2
ACAD
 70
     0
  0
ENDTAB
  0
TABLE
  2
DIMSTYLE
 70
     1
  0
DIMSTYLE
  2
MXDIMSTYLE
 70
     0
  3

  4

  5

  6

  7

 40
1.0
 41
2.5
 42
0.5
 43
3.75
 44
1.0
 45
0.0
 46
0.0
 47
0.0
 48
0.0
 71
     0
 72
     0
 73
     0
 74
     0
 75
     0
 76
     0
 77
     1
 78
     8
140
2.5
141
2.5
142
0.0
143
0.03937
144
1.0
145
0.0
146
1.0
147
1.0
170
     0
171
     4
172
     1
173
     0
174
     0
175
     0
176
     0
177
     0
178
     0
  0
ENDTAB
  0
ENDSEC
  0
SECTION
  2
BLOCKS
  0
BLOCK
  8
0
  5
20
  2
MS_1
 70
     0
 10
0.0
 20
0.0
 30
0.0
  3
MS_1
  0
LINE
  8
0
  6
CENTER
 62
    80
  5
22
 10
-110.479451
 20
301.115306
 30
0.0
 11
-137.94465
 21
273.650108
 31
0.0
  0
LINE
  8
0
  6
CONTINUOUS
 62
     3
  5
23
 10
-301.814527
 20
-169.482482
 30
0.0
 11
-101.814527
 21
-169.482482
 31
0.0
  0
LINE
  8
0
  6
CONTINUOUS
 62
     3
  5
24
 10
-279.957381
 20
-49.982482
 30
0.0
 11
-226.966862
 21
-49.982482
 31
0.0
  0
LINE
  8
0
  6
CONTINUOUS
 62
     3
  5
25
 10
-280.074958
 20
-43.482482
 30
0.0
 11
-226.118816
 21
-43.482482
 31
0.0
  0
LINE
  8
0
  6
CONTINUOUS
 62
     3
  5
26
 10
-141.878176
 20
-43.482482
 30
0.0
 11
-122.159665
 21
-43.482482
 31
0.0
  0
LINE
  8
0
  6
CONTINUOUS
 62
     3
  5
27
 10
-139.842589
 20
-49.982482
 30
0.0
 11
-122.106409
 21
-49.982482
 31
0.0
  0
ARC
  8
0
  6
CONTINUOUS
 62
     3
  5
28
 10
-201.814527
 20
-66.682482
 30
0.0
 40
75.0
 50
5.0
 51
12.865707
  0
LINE
  8
0
  6
CONTINUOUS
 62
     3
  5
29
 10
-127.099925
 20
-60.145801
 30
0.0
 11
-123.045991
 21
-106.482482
 31
0.0
  0
LINE
  8
0
  6
CONTINUOUS
 62
     3
  5
2A
 10
-276.529129
 20
-60.145801
 30
0.0
 11
-280.583064
 21
-106.482482
 31
0.0
  0
ARC
  8
0
  6
CONTINUOUS
 62
     3
  5
2B
 10
-201.814527
 20
-66.682482
 30
0.0
 40
75.0
 50
18.019059
 51
55.161193
  0
ARC
  8
0
  6
CONTINUOUS
 62
     3
  5
2C
 10
-201.814527
 20
-66.682482
 30
0.0
 40
75.0
 50
167.134293
 51
175.0
  0
ARC
  8
0
  6
CONTINUOUS
 62
     3
  5
2D
 10
-201.814527
 20
-66.682482
 30
0.0
 40
75.0
 50
67.558512
 51
95.397992
  0
ARC
  8
0
  6
CONTINUOUS
 62
     3
  5
2E
 10
-201.814527
 20
-66.682482
 30
0.0
 40
75.0
 50
101.786636
 51
150.575171
  0
LINE
  8
0
  6
CONTINUOUS
 62
     3
  5
2F
 10
-216.937864
 20
-49.982482
 30
0.0
 11
-151.734355
 21
-49.982482
 31
0.0
  0
LINE
  8
0
  6
CONTINUOUS
 62
     3
  5
30
 10
-216.672673
 20
-43.482482
 30
0.0
 11
-151.908719
 21
-43.482482
 31
0.0
  0
LINE
  8
0
  6
CONTINUOUS
 62
     3
  5
31
 10
-301.814527
 20
-115.482482
 30
0.0
 11
-301.814527
 21
-184.232554
 31
0.0
  0
LINE
  8
0
  6
CONTINUOUS
 62
     3
  5
32
 10
-240.064527
 20
18.817518
 30
0.0
 11
-163.564527
 21
18.817518
 31
0.0
  0
LINE
  8
0
  6
CONTINUOUS
 62
     3
  5
33
 10
-239.639908
 20
8.317518
 30
0.0
 11
-216.780534
 21
8.317518
 31
0.0
  0
LINE
  8
0
  6
CENTER
 62
    80
  5
34
 10
-293.149603
 20
301.115306
 30
0.0
 11
-266.608105
 21
274.573808
 31
0.0
  0
ARC
  8
0
  6
CONTINUOUS
 62
     3
  5
35
 10
-201.814527
 20
209.78023
 30
0.0
 40
100.0
 50
56.532331
 51
123.467669
  0
ARC
  8
0
  6
CONTINUOUS
 62
     3
  5
36
 10
-201.814527
 20
-76.910246
 30
0.0
 40
386.690476
 50
79.74328
 51
100.205044
  0
ARC
  8
0
  6
CONTINUOUS
 62
     3
  5
37
 10
84.875949
 20
209.78023
 30
0.0
 40
386.690476
 50
169.794956
 51
190.205044
  0
ARC
  8
0
  6
CONTINUOUS
 62
     3
  5
38
 10
-201.814527
 20
496.470706
 30
0.0
 40
386.690476
 50
259.794956
 51
280.205044
  0
ARC
  8
0
  6
CONTINUOUS
 62
     3
  5
39
 10
-488.505004
 20
209.78023
 30
0.0
 40
386.690476
 50
349.794956
 51
10.25672
  0
CIRCLE
  8
0
  6
CONTINUOUS
 62
     3
  5
3A
 10
-126.330878
 20
285.263879
 30
0.0
 40
6.5
  0
CIRCLE
  8
0
  6
CONTINUOUS
 62
     3
  5
3B
 10
-201.814527
 20
209.78023
 30
0.0
 40
94.75
  0
LINE
  8
0
  6
CONTINUOUS
 62
     3
  5
3C
 10
-125.434303
 20
281.917814
 30
0.0
 11
-122.984813
 21
284.367304
 31
0.0
  0
LINE
  8
0
  6
CONTINUOUS
 62
     3
  5
3D
 10
-129.676944
 20
286.160454
 30
0.0
 11
-127.227454
 21
288.609944
 31
0.0
  0
LINE
  8
0
  6
CONTINUOUS
 62
     3
  5
3E
 10
-122.984813
 20
284.367304
 30
0.0
 11
-123.881389
 21
287.713369
 31
0.0
  0
LINE
  8
0
  6
CONTINUOUS
 62
     3
  5
3F
 10
-128.780368
 20
282.814389
 30
0.0
 11
-129.676944
 21
286.160454
 31
0.0
  0
LINE
  8
0
  6
CONTINUOUS
 62
     3
  5
40
 10
-123.881389
 20
287.713369
 30
0.0
 11
-127.227454
 21
288.609944
 31
0.0
  0
LINE
  8
0
  6
CONTINUOUS
 62
     3
  5
41
 10
-125.434303
 20
281.917814
 30
0.0
 11
-128.780368
 21
282.814389
 31
0.0
  0
CIRCLE
  8
0
  6
CONTINUOUS
 62
     3
  5
42
 10
-277.298176
 20
285.263879
 30
0.0
 40
6.5
  0
CIRCLE
  8
0
  6
CONTINUOUS
 62
     3
  5
43
 10
-277.298176
 20
285.263879
 30
0.0
 40
8.5
  0
LINE
  8
0
  6
CONTINUOUS
 62
     3
  5
44
 10
-273.952111
 20
286.160454
 30
0.0
 11
-276.401601
 21
288.609944
 31
0.0
  0
LINE
  8
0
  6
CONTINUOUS
 62
     3
  5
45
 10
-276.401601
 20
288.609944
 30
0.0
 11
-279.747666
 21
287.713369
 31
0.0
  0
LINE
  8
0
  6
CONTINUOUS
 62
     3
  5
46
 10
-278.194752
 20
281.917814
 30
0.0
 11
-280.644241
 21
284.367304
 31
0.0
  0
LINE
  8
0
  6
CONTINUOUS
 62
     3
  5
47
 10
-279.747666
 20
287.713369
 30
0.0
 11
-280.644241
 21
284.367304
 31
0.0
  0
LINE
  8
0
  6
CONTINUOUS
 62
     3
  5
48
 10
-274.848686
 20
282.814389
 30
0.0
 11
-278.194752
 21
281.917814
 31
0.0
  0
LINE
  8
0
  6
CONTINUOUS
 62
     3
  5
49
 10
-273.952111
 20
286.160454
 30
0.0
 11
-274.848686
 21
282.814389
 31
0.0
  0
CIRCLE
  8
0
  6
CONTINUOUS
 62
     3
  5
4A
 10
-277.298176
 20
134.296581
 30
0.0
 40
6.5
  0
CIRCLE
  8
0
  6
CONTINUOUS
 62
     3
  5
4B
 10
-277.298176
 20
134.296581
 30
0.0
 40
8.5
  0
LINE
  8
0
  6
CONTINUOUS
 62
     3
  5
4C
 10
-278.194752
 20
137.642646
 30
0.0
 11
-280.644241
 21
135.193157
 31
0.0
  0
LINE
  8
0
  6
CONTINUOUS
 62
     3
  5
4D
 10
-280.644241
 20
135.193157
 30
0.0
 11
-279.747666
 21
131.847091
 31
0.0
  0
LINE
  8
0
  6
CONTINUOUS
 62
     3
  5
4E
 10
-273.952111
 20
133.400006
 30
0.0
 11
-276.401601
 21
130.950516
 31
0.0
  0
LINE
  8
0
  6
CONTINUOUS
 62
     3
  5
4F
 10
-279.747666
 20
131.847091
 30
0.0
 11
-276.401601
 21
130.950516
 31
0.0
  0
LINE
  8
0
  6
CONTINUOUS
 62
     3
  5
50
 10
-274.848686
 20
136.746071
 30
0.0
 11
-273.952111
 21
133.400006
 31
0.0
  0
LINE
  8
0
  6
CONTINUOUS
 62
     3
  5
51
 10
-278.194752
 20
137.642646
 30
0.0
 11
-274.848686
 21
136.746071
 31
0.0
  0
CIRCLE
  8
0
  6
CONTINUOUS
 62
     3
  5
52
 10
-126.330878
 20
134.296581
 30
0.0
 40
6.5
  0
CIRCLE
  8
0
  6
CONTINUOUS
 62
     3
  5
53
 10
-126.330878
 20
134.296581
 30
0.0
 40
8.5
  0
LINE
  8
0
  6
CONTINUOUS
 62
     3
  5
54
 10
-129.676944
 20
133.400006
 30
0.0
 11
-127.227454
 21
130.950516
 31
0.0
  0
LINE
  8
0
  6
CONTINUOUS
 62
     3
  5
55
 10
-127.227454
 20
130.950516
 30
0.0
 11
-123.881389
 21
131.847091
 31
0.0
  0
LINE
  8
0
  6
CONTINUOUS
 62
     3
  5
56
 10
-125.434303
 20
137.642646
 30
0.0
 11
-122.984813
 21
135.193157
 31
0.0
  0
LINE
  8
0
  6
CONTINUOUS
 62
     3
  5
57
 10
-123.881389
 20
131.847091
 30
0.0
 11
-122.984813
 21
135.193157
 31
0.0
  0
LINE
  8
0
  6
CONTINUOUS
 62
     3
  5
58
 10
-128.780368
 20
136.746071
 30
0.0
 11
-125.434303
 21
137.642646
 31
0.0
  0
LINE
  8
0
  6
CONTINUOUS
 62
     3
  5
59
 10
-129.676944
 20
133.400006
 30
0.0
 11
-128.780368
 21
136.746071
 31
0.0
  0
ARC
  8
0
  6
CONTINUOUS
 62
     3
  5
5A
 10
-201.814527
 20
209.78023
 30
0.0
 40
116.375
 50
36.27445
 51
53.72555
  0
ARC
  8
0
  6
CONTINUOUS
 62
     3
  5
5B
 10
-126.330878
 20
285.263879
 30
0.0
 40
19.498732
 50
109.87805
 51
153.46494
  0
ARC
  8
0
  6
CONTINUOUS
 62
     3
  5
5C
 10
-126.330878
 20
285.263879
 30
0.0
 40
19.498732
 50
296.53506
 51
340.12195
  0
ARC
  8
0
  6
CONTINUOUS
 62
     3
  5
5D
 10
-126.330878
 20
285.263879
 30
0.0
 40
12.0
 50
100.838728
 51
349.161272
  0
ARC
  8
0
  6
CONTINUOUS
 62
     3
  5
5E
 10
-128.869489
 20
298.523044
 30
0.0
 40
1.5
 50
280.838728
 51
50.580394
  0
ARC
  8
0
  6
CONTINUOUS
 62
     3
  5
5F
 10
-113.071713
 20
282.725268
 30
0.0
 40
1.5
 50
39.419606
 51
169.161272
  0
ARC
  8
0
  6
CONTINUOUS
 62
     3
  5
60
 10
-201.814527
 20
209.78023
 30
0.0
 40
116.375
 50
126.446943
 51
143.553057
  0
ARC
  8
0
  6
CONTINUOUS
 62
     3
  5
61
 10
-277.298176
 20
285.263879
 30
0.0
 40
12.0
 50
190.838728
 51
79.161272
  0
ARC
  8
0
  6
CONTINUOUS
 62
     3
  5
62
 10
-290.557341
 20
282.725268
 30
0.0
 40
1.5
 50
10.838728
 51
140.580394
  0
ARC
  8
0
  6
CONTINUOUS
 62
     3
  5
63
 10
-277.298176
 20
285.263879
 30
0.0
 40
19.498732
 50
199.87805
 51
243.46494
  0
ARC
  8
0
  6
CONTINUOUS
 62
     3
  5
64
 10
-277.298176
 20
285.263879
 30
0.0
 40
19.498732
 50
26.53506
 51
67.600094
  0
ARC
  8
0
  6
CONTINUOUS
 62
     3
  5
65
 10
-274.759566
 20
298.523044
 30
0.0
 40
1.5
 50
129.419606
 51
259.161272
  0
ARC
  8
0
  6
CONTINUOUS
 62
     3
  5
66
 10
-201.814527
 20
209.78023
 30
0.0
 40
116.375
 50
216.446943
 51
233.553057
  0
ARC
  8
0
  6
CONTINUOUS
 62
     3
  5
67
 10
-277.298176
 20
134.296581
 30
0.0
 40
12.0
 50
280.838728
 51
169.161272
  0
ARC
  8
0
  6
CONTINUOUS
 62
     3
  5
68
 10
-274.759566
 20
121.037416
 30
0.0
 40
1.5
 50
100.838728
 51
230.580394
  0
ARC
  8
0
  6
CONTINUOUS
 62
     3
  5
69
 10
-277.298176
 20
134.296581
 30
0.0
 40
19.498732
 50
292.399906
 51
333.46494
  0
ARC
  8
0
  6
CONTINUOUS
 62
     3
  5
6A
 10
-277.298176
 20
134.296581
 30
0.0
 40
19.498732
 50
116.53506
 51
160.12195
  0
ARC
  8
0
  6
CONTINUOUS
 62
     3
  5
6B
 10
-290.557341
 20
136.835192
 30
0.0
 40
1.5
 50
219.419606
 51
349.161272
  0
ARC
  8
0
  6
CONTINUOUS
 62
     3
  5
6C
 10
-201.814527
 20
209.78023
 30
0.0
 40
116.375
 50
306.446943
 51
323.553057
  0
ARC
  8
0
  6
CONTINUOUS
 62
     3
  5
6D
 10
-126.330878
 20
134.296581
 30
0.0
 40
12.0
 50
10.838728
 51
259.161272
  0
ARC
  8
0
  6
CONTINUOUS
 62
     3
  5
6E
 10
-113.071713
 20
136.835192
 30
0.0
 40
1.5
 50
190.838728
 51
320.580394
  0
ARC
  8
0
  6
CONTINUOUS
 62
     3
  5
6F
 10
-126.330878
 20
134.296581
 30
0.0
 40
19.498732
 50
19.87805
 51
63.46494
  0
ARC
  8
0
  6
CONTINUOUS
 62
     3
  5
70
 10
-126.330878
 20
134.296581
 30
0.0
 40
19.498732
 50
206.53506
 51
250.12195
  0
ARC
  8
0
  6
CONTINUOUS
 62
     3
  5
71
 10
-128.869489
 20
121.037416
 30
0.0
 40
1.5
 50
309.419606
 51
79.161272
  0
ARC
  8
0
  6
CONTINUOUS
 62
     3
  5
72
 10
-270.059254
 20
302.186523
 30
0.0
 40
1.5
 50
100.205044
 51
126.446943
  0
ARC
  8
0
  6
CONTINUOUS
 62
     3
  5
73
 10
-294.22082
 20
278.024956
 30
0.0
 40
1.5
 50
143.553057
 51
169.794956
  0
ARC
  8
0
  6
CONTINUOUS
 62
     3
  5
74
 10
-294.22082
 20
141.535504
 30
0.0
 40
1.5
 50
190.205044
 51
216.446943
  0
ARC
  8
0
  6
CONTINUOUS
 62
     3
  5
75
 10
-270.43942
 20
117.655913
 30
0.0
 40
1.5
 50
233.316979
 51
292.399906
  0
ARC
  8
0
  6
CONTINUOUS
 62
     3
  5
76
 10
-270.059254
 20
117.373937
 30
0.0
 40
1.5
 50
233.553057
 51
259.794956
  0
ARC
  8
0
  6
CONTINUOUS
 62
     3
  5
77
 10
-270.43942
 20
301.904547
 30
0.0
 40
1.5
 50
67.600094
 51
126.683021
  0
ARC
  8
0
  6
CONTINUOUS
 62
     3
  5
78
 10
-270.059254
 20
302.186523
 30
0.0
 40
1.5
 50
100.205044
 51
126.446943
  0
ARC
  8
0
  6
CONTINUOUS
 62
     3
  5
79
 10
-109.408234
 20
141.535504
 30
0.0
 40
1.5
 50
323.553057
 51
349.794956
  0
ARC
  8
0
  6
CONTINUOUS
 62
     3
  5
7A
 10
-133.569801
 20
117.373937
 30
0.0
 40
1.5
 50
280.205044
 51
306.446943
  0
CIRCLE
  8
0
  6
CONTINUOUS
 62
     3
  5
7B
 10
-112.564527
 20
209.78023
 30
0.0
 40
5.25
  0
CIRCLE
  8
0
  6
CONTINUOUS
 62
     3
  5
7C
 10
-201.814527
 20
299.03023
 30
0.0
 40
5.25
  0
CIRCLE
  8
0
  6
CONTINUOUS
 62
     3
  5
7D
 10
-291.064527
 20
209.78023
 30
0.0
 40
5.25
  0
CIRCLE
  8
0
  6
CONTINUOUS
 62
     3
  5
7E
 10
-201.814527
 20
120.53023
 30
0.0
 40
5.25
  0
ARC
  8
0
  6
CONTINUOUS
 62
     3
  5
7F
 10
-201.814527
 20
209.78023
 30
0.0
 40
83.125
 50
138.363406
 51
191.636594
  0
ARC
  8
0
  6
CONTINUOUS
 62
     3
  5
80
 10
-201.814527
 20
209.78023
 30
0.0
 40
80.125
 50
138.4205
 51
191.5795
  0
ARC
  8
0
  6
CONTINUOUS
 62
     3
  5
81
 10
-201.814527
 20
209.78023
 30
0.0
 40
76.625
 50
138.492762
 51
191.507238
  0
CIRCLE
  8
0
  6
CONTINUOUS
 62
     3
  5
82
 10
-201.814527
 20
209.78023
 30
0.0
 40
40.25
  0
CIRCLE
  8
0
  6
CONTINUOUS
 62
     3
  5
83
 10
-201.814527
 20
209.78023
 30
0.0
 40
35.875
  0
LINE
  8
0
  6
CONTINUOUS
 62
     3
  5
84
 10
-227.692894
 20
240.608344
 30
0.0
 11
-264.997658
 21
280.387982
 31
0.0
  0
LINE
  8
0
  6
CONTINUOUS
 62
     3
  5
85
 10
-232.642642
 20
235.658597
 30
0.0
 11
-272.422279
 21
272.96336
 31
0.0
  0
LINE
  8
0
  6
CONTINUOUS
 62
     3
  5
86
 10
-241.451641
 20
202.782964
 30
0.0
 11
-294.554199
 21
190.36591
 31
0.0
  0
LINE
  8
0
  6
CONTINUOUS
 62
     3
  5
87
 10
-239.639908
 20
196.021483
 30
0.0
 11
-291.836599
 21
180.223689
 31
0.0
  0
LINE
  8
0
  6
CONTINUOUS
 62
     3
  5
88
 10
-215.573274
 20
171.95485
 30
0.0
 11
-231.371069
 21
119.758159
 31
0.0
  0
LINE
  8
0
  6
CONTINUOUS
 62
     3
  5
89
 10
-208.811793
 20
170.143117
 30
0.0
 11
-221.228847
 21
117.040559
 31
0.0
  0
LINE
  8
0
  6
CONTINUOUS
 62
     3
  5
8A
 10
-175.93616
 20
178.952116
 30
0.0
 11
-138.631397
 21
139.172479
 31
0.0
  0
LINE
  8
0
  6
CONTINUOUS
 62
     3
  5
8B
 10
-170.986413
 20
183.901863
 30
0.0
 11
-131.206776
 21
146.5971
 31
0.0
  0
LINE
  8
0
  6
CONTINUOUS
 62
     3
  5
8C
 10
-162.177414
 20
216.777496
 30
0.0
 11
-109.074856
 21
229.19455
 31
0.0
  0
LINE
  8
0
  6
CONTINUOUS
 62
     3
  5
8D
 10
-163.989147
 20
223.538977
 30
0.0
 11
-111.792456
 21
239.336771
 31
0.0
  0
LINE
  8
0
  6
CONTINUOUS
 62
     3
  5
8E
 10
-188.055781
 20
247.60561
 30
0.0
 11
-172.257986
 21
299.802302
 31
0.0
  0
LINE
  8
0
  6
CONTINUOUS
 62
     3
  5
8F
 10
-194.817261
 20
249.417344
 30
0.0
 11
-182.400207
 21
302.519902
 31
0.0
  0
ARC
  8
0
  6
CONTINUOUS
 62
     3
  5
90
 10
-201.814527
 20
209.78023
 30
0.0
 40
83.125
 50
78.363406
 51
131.636594
  0
ARC
  8
0
  6
CONTINUOUS
 62
     3
  5
91
 10
-201.814527
 20
209.78023
 30
0.0
 40
80.125
 50
78.4205
 51
131.5795
  0
ARC
  8
0
  6
CONTINUOUS
 62
     3
  5
92
 10
-201.814527
 20
209.78023
 30
0.0
 40
76.625
 50
78.492762
 51
131.507238
  0
ARC
  8
0
  6
CONTINUOUS
 62
     3
  5
93
 10
-201.814527
 20
209.78023
 30
0.0
 40
83.125
 50
18.363406
 51
71.636594
  0
ARC
  8
0
  6
CONTINUOUS
 62
     3
  5
94
 10
-201.814527
 20
209.78023
 30
0.0
 40
80.125
 50
18.4205
 51
71.5795
  0
ARC
  8
0
  6
CONTINUOUS
 62
     3
  5
95
 10
-201.814527
 20
209.78023
 30
0.0
 40
76.625
 50
18.492762
 51
71.507238
  0
ARC
  8
0
  6
CONTINUOUS
 62
     3
  5
96
 10
-201.814527
 20
209.78023
 30
0.0
 40
83.125
 50
318.363406
 51
11.636594
  0
ARC
  8
0
  6
CONTINUOUS
 62
     3
  5
97
 10
-201.814527
 20
209.78023
 30
0.0
 40
80.125
 50
318.4205
 51
11.5795
  0
ARC
  8
0
  6
CONTINUOUS
 62
     3
  5
98
 10
-201.814527
 20
209.78023
 30
0.0
 40
76.625
 50
318.492762
 51
11.507238
  0
ARC
  8
0
  6
CONTINUOUS
 62
     3
  5
99
 10
-201.814527
 20
209.78023
 30
0.0
 40
83.125
 50
258.363406
 51
311.636594
  0
ARC
  8
0
  6
CONTINUOUS
 62
     3
  5
9A
 10
-201.814527
 20
209.78023
 30
0.0
 40
80.125
 50
258.4205
 51
311.5795
  0
ARC
  8
0
  6
CONTINUOUS
 62
     3
  5
9B
 10
-201.814527
 20
209.78023
 30
0.0
 40
76.625
 50
258.492762
 51
311.507238
  0
ARC
  8
0
  6
CONTINUOUS
 62
     3
  5
9C
 10
-201.814527
 20
209.78023
 30
0.0
 40
83.125
 50
198.363406
 51
251.636594
  0
ARC
  8
0
  6
CONTINUOUS
 62
     3
  5
9D
 10
-201.814527
 20
209.78023
 30
0.0
 40
80.125
 50
198.4205
 51
251.5795
  0
ARC
  8
0
  6
CONTINUOUS
 62
     3
  5
9E
 10
-201.814527
 20
209.78023
 30
0.0
 40
76.625
 50
198.492762
 51
251.507238
  0
LINE
  8
0
  6
DASHED
 62
    80
  5
A0
 10
-148.314527
 20
232.53023
 30
0.0
 11
-148.314527
 21
187.03023
 31
0.0
  0
LINE
  8
0
  6
DASHED
 62
    80
  5
A1
 10
-254.314527
 20
232.53023
 30
0.0
 11
-235.018443
 21
232.53023
 31
0.0
  0
LINE
  8
0
  6
DASHED
 62
    80
  5
A2
 10
-254.314527
 20
187.03023
 30
0.0
 11
-235.018443
 21
187.03023
 31
0.0
  0
LINE
  8
0
  6
DASHED
 62
    80
  5
A3
 10
-254.314527
 20
232.53023
 30
0.0
 11
-254.314527
 21
187.03023
 31
0.0
  0
LINE
  8
0
  6
DASHED
 62
    80
  5
A4
 10
-261.314527
 20
232.53023
 30
0.0
 11
-261.314527
 21
187.03023
 31
0.0
  0
LINE
  8
0
  6
DASHED
 62
    80
  5
A5
 10
-268.314527
 20
232.53023
 30
0.0
 11
-268.314527
 21
187.03023
 31
0.0
  0
LINE
  8
0
  6
DASHED
 62
    80
  5
A6
 10
-261.314527
 20
232.53023
 30
0.0
 11
-268.314527
 21
232.53023
 31
0.0
  0
LINE
  8
0
  6
DASHED
 62
    80
  5
A7
 10
-261.314527
 20
187.03023
 30
0.0
 11
-268.314527
 21
187.03023
 31
0.0
  0
LINE
  8
0
  6
DASHED
 62
    80
  5
A8
 10
-261.314527
 20
229.03023
 30
0.0
 11
-254.314527
 21
229.03023
 31
0.0
  0
LINE
  8
0
  6
DASHED
 62
    80
  5
A9
 10
-261.314527
 20
190.53023
 30
0.0
 11
-254.314527
 21
190.53023
 31
0.0
  0
LINE
  8
0
  6
DASHED
 62
    80
  5
AA
 10
-254.314527
 20
226.40523
 30
0.0
 11
-238.470657
 21
226.40523
 31
0.0
  0
LINE
  8
0
  6
DASHED
 62
    80
  5
AB
 10
-254.314527
 20
193.15523
 30
0.0
 11
-238.470657
 21
193.15523
 31
0.0
  0
LINE
  8
0
  6
DASHED
 62
    80
  5
AC
 10
-254.314527
 20
225.40523
 30
0.0
 11
-238.907948
 21
225.40523
 31
0.0
  0
LINE
  8
0
  6
DASHED
 62
    80
  5
AD
 10
-254.314527
 20
194.15523
 30
0.0
 11
-238.907948
 21
194.15523
 31
0.0
  0
LINE
  8
0
  6
CONTINUOUS
 62
     3
  5
AE
 10
-101.814527
 20
-115.482482
 30
0.0
 11
-101.814527
 21
-184.232554
 31
0.0
  0
LINE
  8
0
  6
CONTINUOUS
 62
     3
  5
AF
 10
-161.564527
 20
16.817518
 30
0.0
 11
-161.564527
 21
8.317518
 31
0.0
  0
LINE
  8
0
  6
CONTINUOUS
 62
     3
  5
B0
 10
-294.554199
 20
-106.482482
 30
0.0
 11
-109.064527
 21
-106.482482
 31
0.0
  0
LINE
  8
0
  6
CONTINUOUS
 62
     3
  5
B1
 10
-299.814527
 20
-113.482482
 30
0.0
 11
-103.814527
 21
-113.482482
 31
0.0
  0
ARC
  8
0
  6
CONTINUOUS
 62
     3
  5
B2
 10
-103.814527
 20
-115.482482
 30
0.0
 40
2.0
 50
0.0
 51
90.0
  0
LINE
  8
0
  6
CONTINUOUS
 62
     3
  5
B3
 10
-107.064527
 20
-108.482482
 30
0.0
 11
-107.064527
 21
-113.482482
 31
0.0
  0
ARC
  8
0
  6
CONTINUOUS
 62
     3
  5
B4
 10
-109.064527
 20
-108.482482
 30
0.0
 40
2.0
 50
0.0
 51
90.0
  0
ARC
  8
0
  6
CONTINUOUS
 62
     3
  5
B5
 10
-272.577232
 20
-106.484904
 30
0.0
 40
163.512705
 50
0.000849
 51
47.24038
  0
ARC
  8
0
  6
CONTINUOUS
 62
     3
  5
B6
 10
-281.327232
 20
-106.484904
 30
0.0
 40
165.899673
 50
0.0
 51
19.912329
  0
ARC
  8
0
  6
CONTINUOUS
 62
     3
  5
B7
 10
-281.327232
 20
-106.484904
 30
0.0
 40
165.899673
 50
22.318952
 51
43.788563
  0
ARC
  8
0
  6
CONTINUOUS
 62
     3
  5
B8
 10
-163.564527
 20
16.817518
 30
0.0
 40
2.0
 50
0.0
 51
90.0
  0
ARC
  8
0
  6
CONTINUOUS
 62
     3
  5
B9
 10
-283.751852
 20
-106.484904
 30
0.0
 40
165.899673
 50
22.318952
 51
43.788563
  0
ARC
  8
0
  6
CONTINUOUS
 62
     3
  5
BA
 10
-283.751852
 20
-106.484904
 30
0.0
 40
165.899673
 50
0.0
 51
19.912329
  0
LINE
  8
0
  6
CONTINUOUS
 62
     3
  5
BB
 10
-170.986413
 20
13.567518
 30
0.0
 11
-175.93616
 21
13.567518
 31
0.0
  0
ARC
  8
0
  6
CONTINUOUS
 62
     3
  5
BC
 10
-342.428171
 20
-109.856905
 30
0.0
 40
211.248348
 50
0.915266
 51
35.750884
  0
ARC
  8
0
  6
CONTINUOUS
 62
     3
  5
BD
 10
-429.299367
 20
-130.984572
 30
0.0
 40
291.698854
 50
4.818402
 51
29.706188
  0
LINE
  8
0
  6
CONTINUOUS
 62
     3
  5
BE
 10
-175.93616
 20
13.567518
 30
0.0
 11
-175.93616
 21
8.342932
 31
0.0
  0
ARC
  8
0
  6
CONTINUOUS
 62
     3
  5
BF
 10
-430.133556
 20
-117.795489
 30
0.0
 40
283.773179
 50
2.28478
 51
13.825701
  0
LINE
  8
0
  6
CONTINUOUS
 62
     3
  5
C0
 10
-241.451641
 20
13.567518
 30
0.0
 11
-239.639908
 21
13.567518
 31
0.0
  0
ARC
  8
0
  6
CONTINUOUS
 62
     3
  5
C1
 10
544.69716
 20
-125.036851
 30
0.0
 40
766.150712
 50
169.577228
 51
178.612295
  0
ARC
  8
0
  6
CONTINUOUS
 62
     3
  5
C2
 10
377.149141
 20
-125.495318
 30
0.0
 40
608.81716
 50
166.796239
 51
178.210411
  0
LINE
  8
0
  6
CONTINUOUS
 62
     3
  5
C3
 10
-208.811793
 20
13.567518
 30
0.0
 11
-208.811793
 21
8.342932
 31
0.0
  0
ARC
  8
0
  6
CONTINUOUS
 62
     3
  5
C4
 10
546.581819
 20
-113.910156
 30
0.0
 40
765.222784
 50
170.80677
 51
174.71928
  0
ARC
  8
0
  6
CONTINUOUS
 62
     3
  5
C5
 10
-141.273104
 20
-100.546162
 30
0.0
 40
150.658421
 50
130.761572
 51
182.258182
  0
ARC
  8
0
  6
CONTINUOUS
 62
     3
  5
C6
 10
-141.273104
 20
-100.546162
 30
0.0
 40
150.658421
 50
130.761572
 51
182.258182
  0
ARC
  8
0
  6
CONTINUOUS
 62
     3
  5
C7
 10
-141.95124
 20
-91.519534
 30
0.0
 40
139.559794
 50
134.425171
 51
159.866782
  0
LINE
  8
0
  6
CONTINUOUS
 62
     3
  5
C8
 10
-242.064527
 20
16.817518
 30
0.0
 11
-242.064527
 21
13.049468
 31
0.0
  0
ARC
  8
0
  6
CONTINUOUS
 62
     3
  5
C9
 10
-240.064527
 20
16.817518
 30
0.0
 40
2.0
 50
90.0
 51
180.0
  0
LINE
  8
0
  6
CONTINUOUS
 62
     3
  5
CA
 10
-239.639908
 20
13.567518
 30
0.0
 11
-239.639908
 21
8.342932
 31
0.0
  0
LINE
  8
0
  6
CONTINUOUS
 62
     3
  5
CB
 10
-294.554199
 20
-100.446837
 30
0.0
 11
-294.554199
 21
-106.482482
 31
0.0
  0
ARC
  8
0
  6
CONTINUOUS
 62
     3
  5
CC
 10
-145.605116
 20
-100.446837
 30
0.0
 40
148.949083
 50
130.052193
 51
180.0
  0
ARC
  8
0
  6
CONTINUOUS
 62
     3
  5
CD
 10
-299.814527
 20
-115.482482
 30
0.0
 40
2.0
 50
90.0
 51
180.0
  0
LINE
  8
0
  6
CONTINUOUS
 62
     3
  5
CE
 10
-296.564527
 20
-108.482482
 30
0.0
 11
-296.564527
 21
-113.482482
 31
0.0
  0
ARC
  8
0
  6
CONTINUOUS
 62
     3
  5
CF
 10
-294.564527
 20
-108.482482
 30
0.0
 40
2.0
 50
90.0
 51
180.0
  0
LINE
  8
0
  6
CONTINUOUS
 62
     3
  5
D0
 10
-215.573274
 20
13.567518
 30
0.0
 11
-208.811793
 21
13.567518
 31
0.0
  0
LINE
  8
0
  6
CONTINUOUS
 62
     3
  5
D1
 10
-208.811793
 20
8.317518
 30
0.0
 11
-175.93616
 21
8.317518
 31
0.0
  0
LINE
  8
0
  6
CONTINUOUS
 62
     3
  5
D2
 10
-167.326285
 20
8.317518
 30
0.0
 11
-161.564527
 21
8.317518
 31
0.0
  0
ARC
  8
0
  6
CONTINUOUS
 62
     3
  5
D3
 10
546.581819
 20
-113.910156
 30
0.0
 40
765.222784
 50
175.207853
 51
179.457277
  0
ARC
  8
0
  6
CONTINUOUS
 62
     3
  5
D4
 10
-430.133556
 20
-117.795489
 30
0.0
 40
283.773179
 50
15.181327
 51
26.391634
  0
ARC
  8
0
  6
CONTINUOUS
 62
     3
  5
D5
 10
1.998033
 20
-110.777246
 30
0.0
 40
283.773179
 50
167.629222
 51
179.170143
  0
LINE
  8
0
  6
CONTINUOUS
 62
     3
  5
D6
 10
-295.614978
 20
-181.732482
 30
0.0
 11
-270.950371
 21
-181.732482
 31
0.0
  0
LINE
  8
0
  6
CONTINUOUS
 62
     3
  5
D7
 10
-108.014077
 20
-152.232482
 30
0.0
 11
-108.014077
 21
-181.732482
 31
0.0
  0
LINE
  8
0
  6
CONTINUOUS
 62
     3
  5
D8
 10
-114.544954
 20
-152.232482
 30
0.0
 11
-114.544954
 21
-163.029711
 31
0.0
  0
LINE
  8
0
  6
CONTINUOUS
 62
     3
  5
D9
 10
-127.369489
 20
-152.232482
 30
0.0
 11
-127.369489
 21
-163.029711
 31
0.0
  0
LINE
  8
0
  6
CONTINUOUS
 62
     3
  5
DA
 10
-133.304044
 20
-152.232482
 30
0.0
 11
-133.304044
 21
-181.732482
 31
0.0
  0
LINE
  8
0
  6
CONTINUOUS
 62
     3
  5
DB
 10
-127.369489
 20
-163.029711
 30
0.0
 11
-114.544954
 21
-163.029711
 31
0.0
  0
LINE
  8
0
  6
CONTINUOUS
 62
     3
  5
DC
 10
-143.806898
 20
-150.232482
 30
0.0
 11
-110.014077
 21
-150.232482
 31
0.0
  0
LINE
  8
0
  6
CONTINUOUS
 62
     3
  5
DD
 10
-145.806898
 20
-152.232482
 30
0.0
 11
-145.806898
 21
-160.732482
 31
0.0
  0
ARC
  8
0
  6
CONTINUOUS
 62
     3
  5
DE
 10
-110.014077
 20
-152.232482
 30
0.0
 40
2.0
 50
0.0
 51
90.0
  0
ARC
  8
0
  6
CONTINUOUS
 62
     3
  5
DF
 10
-112.544954
 20
-152.232482
 30
0.0
 40
2.0
 50
90.0
 51
180.0
  0
ARC
  8
0
  6
CONTINUOUS
 62
     3
  5
E0
 10
-129.369489
 20
-152.232482
 30
0.0
 40
2.0
 50
0.0
 51
90.0
  0
ARC
  8
0
  6
CONTINUOUS
 62
     3
  5
E1
 10
-131.304044
 20
-152.232482
 30
0.0
 40
2.0
 50
90.0
 51
180.0
  0
ARC
  8
0
  6
CONTINUOUS
 62
     3
  5
E2
 10
-143.806898
 20
-152.232482
 30
0.0
 40
2.0
 50
90.0
 51
180.0
  0
LINE
  8
0
  6
CONTINUOUS
 62
     3
  5
E3
 10
-101.814527
 20
-160.732482
 30
0.0
 11
-108.014077
 21
-160.732482
 31
0.0
  0
ARC
  8
0
  6
CONTINUOUS
 62
     3
  5
E4
 10
-201.814527
 20
209.78023
 30
0.0
 40
100.0
 50
146.532331
 51
213.467669
  0
ARC
  8
0
  6
CONTINUOUS
 62
     3
  5
E5
 10
-201.814527
 20
209.78023
 30
0.0
 40
100.0
 50
236.532331
 51
303.467669
  0
ARC
  8
0
  6
CONTINUOUS
 62
     3
  5
E6
 10
-201.814527
 20
209.78023
 30
0.0
 40
100.0
 50
326.532331
 51
33.467669
  0
ARC
  8
0
  6
CONTINUOUS
 62
     3
  5
E7
 10
-116.726419
 20
266.029798
 30
0.0
 40
2.0
 50
116.53506
 51
213.467669
  0
ARC
  8
0
  6
CONTINUOUS
 62
     3
  5
E8
 10
-145.564959
 20
294.868338
 30
0.0
 40
2.0
 50
236.532331
 51
333.46494
  0
ARC
  8
0
  6
CONTINUOUS
 62
     3
  5
E9
 10
-258.064095
 20
294.868338
 30
0.0
 40
2.0
 50
206.53506
 51
303.467669
  0
ARC
  8
0
  6
CONTINUOUS
 62
     3
  5
EA
 10
-286.902635
 20
266.029798
 30
0.0
 40
2.0
 50
326.532331
 51
63.46494
  0
ARC
  8
0
  6
CONTINUOUS
 62
     3
  5
EB
 10
-286.902635
 20
153.530662
 30
0.0
 40
2.0
 50
296.53506
 51
33.467669
  0
ARC
  8
0
  6
CONTINUOUS
 62
     3
  5
EC
 10
-258.064095
 20
124.692122
 30
0.0
 40
2.0
 50
56.532331
 51
153.46494
  0
ARC
  8
0
  6
CONTINUOUS
 62
     3
  5
ED
 10
-145.564959
 20
124.692122
 30
0.0
 40
2.0
 50
26.53506
 51
123.467669
  0
ARC
  8
0
  6
CONTINUOUS
 62
     3
  5
EE
 10
-116.726419
 20
153.530662
 30
0.0
 40
2.0
 50
146.532331
 51
243.46494
  0
LINE
  8
0
  6
CONTINUOUS
 62
     3
  5
EF
 10
-280.074958
 20
-43.482482
 30
0.0
 11
-279.957381
 21
-49.982482
 31
0.0
  0
LINE
  8
0
  6
CONTINUOUS
 62
     3
  5
F0
 10
-151.908719
 20
-43.482482
 30
0.0
 11
-151.734355
 21
-49.982482
 31
0.0
  0
LINE
  8
0
  6
CONTINUOUS
 62
     3
  5
F1
 10
-122.159665
 20
-43.482482
 30
0.0
 11
-122.106409
 21
-49.982482
 31
0.0
  0
LINE
  8
0
  6
CONTINUOUS
 62
     3
  5
F2
 10
-216.672673
 20
-43.482482
 30
0.0
 11
-216.937864
 21
-49.982482
 31
0.0
  0
ARC
  8
0
  6
CONTINUOUS
 62
     3
  5
F3
 10
-202.127207
 20
493.164669
 30
0.0
 40
678.397224
 50
264.177346
 51
275.822654
  0
LINE
  8
0
  6
CONTINUOUS
 62
     3
  5
F4
 10
-133.304044
 20
-181.732482
 30
0.0
 11
-108.014077
 21
-181.732482
 31
0.0
  0
LINE
  8
0
  6
CONTINUOUS
 62
     3
  5
F5
 10
-117.830878
 20
-161.529711
 30
0.0
 11
-117.830878
 21
-163.029711
 31
0.0
  0
LINE
  8
0
  6
CONTINUOUS
 62
     3
  5
F6
 10
-119.830878
 20
-152.529711
 30
0.0
 11
-119.830878
 21
-161.529711
 31
0.0
  0
LINE
  8
0
  6
CONTINUOUS
 62
     3
  5
F7
 10
-127.369489
 20
-161.529711
 30
0.0
 11
-117.830878
 21
-161.529711
 31
0.0
  0
LINE
  8
0
  6
CONTINUOUS
 62
     3
  5
F8
 10
-127.369489
 20
-159.529711
 30
0.0
 11
-119.830878
 21
-159.529711
 31
0.0
  0
LINE
  8
0
  6
CONTINUOUS
 62
     3
  5
F9
 10
-127.487733
 20
-151.529711
 30
0.0
 11
-120.830878
 21
-151.529711
 31
0.0
  0
ARC
  8
0
  6
CONTINUOUS
 62
     3
  5
FA
 10
-120.830878
 20
-152.529711
 30
0.0
 40
1.0
 50
0.0
 51
90.0
  0
LINE
  8
0
  6
CONTINUOUS
 62
     3
  5
FB
 10
-295.614978
 20
-152.232482
 30
0.0
 11
-295.614978
 21
-181.732482
 31
0.0
  0
LINE
  8
0
  6
CONTINUOUS
 62
     3
  5
FC
 10
-270.325011
 20
-152.232482
 30
0.0
 11
-270.325011
 21
-181.732482
 31
0.0
  0
ARC
  8
0
  6
CONTINUOUS
 62
     3
  5
FD
 10
-282.798176
 20
-152.529711
 30
0.0
 40
1.0
 50
90.0
 51
180.0
  0
LINE
  8
0
  6
CONTINUOUS
 62
     3
  5
FE
 10
-276.141322
 20
-151.529711
 30
0.0
 11
-282.798176
 21
-151.529711
 31
0.0
  0
LINE
  8
0
  6
CONTINUOUS
 62
     3
  5
FF
 10
-276.259566
 20
-159.529711
 30
0.0
 11
-283.798176
 21
-159.529711
 31
0.0
  0
LINE
  8
0
  6
CONTINUOUS
 62
     3
  5
100
 10
-276.259566
 20
-161.529711
 30
0.0
 11
-285.798176
 21
-161.529711
 31
0.0
  0
LINE
  8
0
  6
CONTINUOUS
 62
     3
  5
101
 10
-283.798176
 20
-152.529711
 30
0.0
 11
-283.798176
 21
-161.529711
 31
0.0
  0
LINE
  8
0
  6
CONTINUOUS
 62
     3
  5
102
 10
-285.798176
 20
-161.529711
 30
0.0
 11
-285.798176
 21
-163.029711
 31
0.0
  0
ARC
  8
0
  6
CONTINUOUS
 62
     3
  5
103
 10
-259.822157
 20
-152.232482
 30
0.0
 40
2.0
 50
0.0
 51
90.0
  0
ARC
  8
0
  6
CONTINUOUS
 62
     3
  5
104
 10
-272.325011
 20
-152.232482
 30
0.0
 40
2.0
 50
0.0
 51
90.0
  0
ARC
  8
0
  6
CONTINUOUS
 62
     3
  5
105
 10
-274.259566
 20
-152.232482
 30
0.0
 40
2.0
 50
90.0
 51
180.0
  0
ARC
  8
0
  6
CONTINUOUS
 62
     3
  5
106
 10
-291.084101
 20
-152.232482
 30
0.0
 40
2.0
 50
0.0
 51
90.0
  0
ARC
  8
0
  6
CONTINUOUS
 62
     3
  5
107
 10
-293.614978
 20
-152.232482
 30
0.0
 40
2.0
 50
90.0
 51
180.0
  0
LINE
  8
0
  6
CONTINUOUS
 62
     3
  5
108
 10
-257.822157
 20
-152.232482
 30
0.0
 11
-257.822157
 21
-160.732482
 31
0.0
  0
LINE
  8
0
  6
CONTINUOUS
 62
     3
  5
109
 10
-259.822157
 20
-150.232482
 30
0.0
 11
-293.614978
 21
-150.232482
 31
0.0
  0
LINE
  8
0
  6
CONTINUOUS
 62
     3
  5
10A
 10
-276.259566
 20
-163.029711
 30
0.0
 11
-289.084101
 21
-163.029711
 31
0.0
  0
LINE
  8
0
  6
CONTINUOUS
 62
     3
  5
10B
 10
-276.259566
 20
-152.232482
 30
0.0
 11
-276.259566
 21
-163.029711
 31
0.0
  0
LINE
  8
0
  6
CONTINUOUS
 62
     3
  5
10C
 10
-289.084101
 20
-152.232482
 30
0.0
 11
-289.084101
 21
-163.029711
 31
0.0
  0
LINE
  8
0
  6
CONTINUOUS
 62
     3
  5
10D
 10
-290.939527
 20
-193.982482
 30
0.0
 11
-112.689527
 21
-193.982482
 31
0.0
  0
LINE
  8
0
  6
CONTINUOUS
 62
     3
  5
10E
 10
-111.689527
 20
-185.232554
 30
0.0
 11
-111.689527
 21
-192.982482
 31
0.0
  0
LINE
  8
0
  6
CONTINUOUS
 62
     3
  5
10F
 10
-111.689527
 20
-185.232554
 30
0.0
 11
-102.814527
 21
-185.232554
 31
0.0
  0
ARC
  8
0
  6
CONTINUOUS
 62
     3
  5
110
 10
-102.814527
 20
-184.232554
 30
0.0
 40
1.0
 50
270.0
 51
0.0
  0
ARC
  8
0
  6
CONTINUOUS
 62
     3
  5
111
 10
-112.689527
 20
-192.982482
 30
0.0
 40
1.0
 50
270.0
 51
0.0
  0
LINE
  8
0
  6
CONTINUOUS
 62
     3
  5
112
 10
-101.814527
 20
-184.232554
 30
0.0
 11
-108.014077
 21
-181.732482
 31
0.0
  0
ARC
  8
0
  6
CONTINUOUS
 62
     3
  5
113
 10
-300.814527
 20
-184.232554
 30
0.0
 40
1.0
 50
180.0
 51
270.0
  0
LINE
  8
0
  6
CONTINUOUS
 62
     3
  5
114
 10
-301.814527
 20
-184.232554
 30
0.0
 11
-295.614978
 21
-181.732482
 31
0.0
  0
LINE
  8
0
  6
CONTINUOUS
 62
     3
  5
115
 10
-291.939527
 20
-185.232554
 30
0.0
 11
-300.814527
 21
-185.232554
 31
0.0
  0
LINE
  8
0
  6
CONTINUOUS
 62
     3
  5
116
 10
-291.939527
 20
-185.232554
 30
0.0
 11
-291.939527
 21
-192.982482
 31
0.0
  0
ARC
  8
0
  6
CONTINUOUS
 62
     3
  5
117
 10
-290.939527
 20
-192.982482
 30
0.0
 40
1.0
 50
180.0
 51
270.0
  0
LINE
  8
0
  6
CONTINUOUS
 62
     3
  5
118
 10
-145.806898
 20
-160.732482
 30
0.0
 11
-257.822157
 21
-160.732482
 31
0.0
  0
LINE
  8
0
  6
CONTINUOUS
 62
     3
  5
119
 10
-301.814527
 20
-160.732482
 30
0.0
 11
-295.614978
 21
-160.732482
 31
0.0
  0
LINE
  8
0
  6
CONTINUOUS
 62
     3
  5
11A
 10
-233.314527
 20
-200.982482
 30
0.0
 11
-170.314527
 21
-200.982482
 31
0.0
  0
LINE
  8
0
  6
CONTINUOUS
 62
     3
  5
11B
 10
-170.314527
 20
-200.982482
 30
0.0
 11
-170.314527
 21
-218.043579
 31
0.0
  0
LINE
  8
0
  6
CONTINUOUS
 62
     3
  5
11C
 10
-170.314527
 20
-200.982482
 30
0.0
 11
-112.569063
 21
-193.9752
 31
0.0
  0
LINE
  8
0
  6
CONTINUOUS
 62
     3
  5
11D
 10
-233.314527
 20
-200.982482
 30
0.0
 11
-291.059991
 21
-193.9752
 31
0.0
  0
LINE
  8
0
  6
CONTINUOUS
 62
     3
  5
11E
 10
-233.314527
 20
-200.982482
 30
0.0
 11
-233.314527
 21
-218.043579
 31
0.0
  0
LINE
  8
0
  6
CONTINUOUS
 62
     3
  5
11F
 10
-173.289527
 20
-299.482482
 30
0.0
 11
-144.314527
 21
-299.482482
 31
0.0
  0
LINE
  8
0
  6
CENTER
 62
    80
  5
120
 10
-301.814527
 20
-244.482482
 30
0.0
 11
-101.814527
 21
-244.482482
 31
0.0
  0
ARC
  8
0
  6
CONTINUOUS
 62
     3
  5
121
 10
-201.814527
 20
-244.482482
 30
0.0
 40
41.125
 50
196.906241
 51
343.093759
  0
LINE
  8
0
  6
CONTINUOUS
 62
     3
  5
122
 10
-254.314527
 20
-221.732482
 30
0.0
 11
-236.073878
 21
-221.732482
 31
0.0
  0
LINE
  8
0
  6
DASHED
 62
    80
  5
123
 10
-254.314527
 20
-227.857482
 30
0.0
 11
-239.429352
 21
-227.857482
 31
0.0
  0
LINE
  8
0
  6
DASHED
 62
    80
  5
124
 10
-254.314527
 20
-228.857482
 30
0.0
 11
-239.855624
 21
-228.857482
 31
0.0
  0
LINE
  8
0
  6
CONTINUOUS
 62
     3
  5
125
 10
-148.314527
 20
-221.732482
 30
0.0
 11
-148.314527
 21
-240.261997
 31
0.0
  0
LINE
  8
0
  6
CONTINUOUS
 62
     3
  5
126
 10
-254.314527
 20
-267.232482
 30
0.0
 11
-236.073878
 21
-267.232482
 31
0.0
  0
LINE
  8
0
  6
DASHED
 62
    80
  5
127
 10
-254.314527
 20
-261.107482
 30
0.0
 11
-239.429352
 21
-261.107482
 31
0.0
  0
LINE
  8
0
  6
DASHED
 62
    80
  5
128
 10
-254.314527
 20
-260.107482
 30
0.0
 11
-239.855624
 21
-260.107482
 31
0.0
  0
LINE
  8
0
  6
CONTINUOUS
 62
     3
  5
129
 10
-254.314527
 20
-221.732482
 30
0.0
 11
-254.314527
 21
-238.172768
 31
0.0
  0
LINE
  8
0
  6
CONTINUOUS
 62
     3
  5
12A
 10
-261.314527
 20
-221.732482
 30
0.0
 11
-261.314527
 21
-267.232482
 31
0.0
  0
LINE
  8
0
  6
CONTINUOUS
 62
     3
  5
12B
 10
-268.314527
 20
-221.732482
 30
0.0
 11
-268.314527
 21
-267.232482
 31
0.0
  0
LINE
  8
0
  6
CONTINUOUS
 62
     3
  5
12C
 10
-261.314527
 20
-225.232482
 30
0.0
 11
-254.314527
 21
-225.232482
 31
0.0
  0
LINE
  8
0
  6
CONTINUOUS
 62
     3
  5
12D
 10
-261.314527
 20
-221.732482
 30
0.0
 11
-268.314527
 21
-221.732482
 31
0.0
  0
LINE
  8
0
  6
CONTINUOUS
 62
     3
  5
12E
 10
-261.314527
 20
-263.732482
 30
0.0
 11
-254.314527
 21
-263.732482
 31
0.0
  0
LINE
  8
0
  6
CONTINUOUS
 62
     3
  5
12F
 10
-261.314527
 20
-267.232482
 30
0.0
 11
-268.314527
 21
-267.232482
 31
0.0
  0
LINE
  8
0
  6
CENTER
 62
    80
  5
130
 10
-243.814527
 20
-230.150494
 30
0.0
 11
-243.814527
 21
-258.796163
 31
0.0
  0
CIRCLE
  8
0
  6
CONTINUOUS
 62
     3
  5
131
 10
-243.814527
 20
-244.482482
 30
0.0
 40
12.25
  0
CIRCLE
  8
0
  6
CONTINUOUS
 62
     3
  5
132
 10
-243.814527
 20
-244.482482
 30
0.0
 40
6.5
  0
LINE
  8
0
  6
CONTINUOUS
 62
     3
  5
133
 10
-246.814527
 20
-246.214533
 30
0.0
 11
-246.814527
 21
-242.750432
 31
0.0
  0
LINE
  8
0
  6
CONTINUOUS
 62
     3
  5
134
 10
-246.814527
 20
-242.750432
 30
0.0
 11
-243.814527
 21
-241.018381
 31
0.0
  0
LINE
  8
0
  6
CONTINUOUS
 62
     3
  5
135
 10
-240.814527
 20
-246.214533
 30
0.0
 11
-240.814527
 21
-242.750432
 31
0.0
  0
LINE
  8
0
  6
CONTINUOUS
 62
     3
  5
136
 10
-243.814527
 20
-241.018381
 30
0.0
 11
-240.814527
 21
-242.750432
 31
0.0
  0
LINE
  8
0
  6
CONTINUOUS
 62
     3
  5
137
 10
-243.814527
 20
-247.946584
 30
0.0
 11
-240.814527
 21
-246.214533
 31
0.0
  0
LINE
  8
0
  6
CONTINUOUS
 62
     3
  5
138
 10
-246.814527
 20
-246.214533
 30
0.0
 11
-243.814527
 21
-247.946584
 31
0.0
  0
CIRCLE
  8
0
  6
CONTINUOUS
 62
     3
  5
139
 10
-243.814527
 20
-244.482482
 30
0.0
 40
8.5
  0
LINE
  8
0
  6
CONTINUOUS
 62
     3
  5
13A
 10
-167.555176
 20
-221.732482
 30
0.0
 11
-148.314527
 21
-221.732482
 31
0.0
  0
LINE
  8
0
  6
CONTINUOUS
 62
     3
  5
13B
 10
-167.555176
 20
-267.232482
 30
0.0
 11
-148.314527
 21
-267.232482
 31
0.0
  0
LINE
  8
0
  6
CENTER
 62
    80
  5
13C
 10
-159.814527
 20
-230.150494
 30
0.0
 11
-159.814527
 21
-258.796163
 31
0.0
  0
CIRCLE
  8
0
  6
CONTINUOUS
 62
     3
  5
13D
 10
-159.814527
 20
-244.482482
 30
0.0
 40
12.25
  0
CIRCLE
  8
0
  6
CONTINUOUS
 62
     3
  5
13E
 10
-159.814527
 20
-244.482482
 30
0.0
 40
6.5
  0
LINE
  8
0
  6
CONTINUOUS
 62
     3
  5
13F
 10
-156.814527
 20
-246.214533
 30
0.0
 11
-156.814527
 21
-242.750432
 31
0.0
  0
LINE
  8
0
  6
CONTINUOUS
 62
     3
  5
140
 10
-159.814527
 20
-241.018381
 30
0.0
 11
-162.814527
 21
-242.750432
 31
0.0
  0
CIRCLE
  8
0
  6
CONTINUOUS
 62
     3
  5
141
 10
-159.814527
 20
-244.482482
 30
0.0
 40
8.5
  0
LINE
  8
0
  6
CONTINUOUS
 62
     3
  5
142
 10
-156.814527
 20
-242.750432
 30
0.0
 11
-159.814527
 21
-241.018381
 31
0.0
  0
LINE
  8
0
  6
CONTINUOUS
 62
     3
  5
143
 10
-156.814527
 20
-246.214533
 30
0.0
 11
-159.814527
 21
-247.946584
 31
0.0
  0
LINE
  8
0
  6
CONTINUOUS
 62
     3
  5
144
 10
-159.814527
 20
-247.946584
 30
0.0
 11
-162.814527
 21
-246.214533
 31
0.0
  0
LINE
  8
0
  6
CONTINUOUS
 62
     3
  5
145
 10
-162.814527
 20
-246.214533
 30
0.0
 11
-162.814527
 21
-242.750432
 31
0.0
  0
ARC
  8
0
  6
CONTINUOUS
 62
     3
  5
146
 10
-201.814527
 20
-244.482482
 30
0.0
 40
41.125
 50
16.906241
 51
163.093759
  0
LINE
  8
0
  6
CONTINUOUS
 62
     3
  5
147
 10
-148.314527
 20
-248.702968
 30
0.0
 11
-148.314527
 21
-267.232482
 31
0.0
  0
LINE
  8
0
  6
CONTINUOUS
 62
     3
  5
148
 10
-254.314527
 20
-250.792197
 30
0.0
 11
-254.314527
 21
-267.232482
 31
0.0
  0
LINE
  8
0
  6
DASHED
 62
    80
  5
149
 10
-164.199703
 20
-227.857482
 30
0.0
 11
-148.314527
 21
-227.857482
 31
0.0
  0
LINE
  8
0
  6
DASHED
 62
    80
  5
14A
 10
-163.773431
 20
-228.857482
 30
0.0
 11
-148.314527
 21
-228.857482
 31
0.0
  0
LINE
  8
0
  6
DASHED
 62
    80
  5
14B
 10
-164.199703
 20
-261.107482
 30
0.0
 11
-148.314527
 21
-261.107482
 31
0.0
  0
LINE
  8
0
  6
DASHED
 62
    80
  5
14C
 10
-163.773431
 20
-260.107482
 30
0.0
 11
-148.314527
 21
-260.107482
 31
0.0
  0
LINE
  8
0
  6
CONTINUOUS
 62
     3
  5
14D
 10
-165.064527
 20
-267.232482
 30
0.0
 11
-165.064527
 21
-288.982482
 31
0.0
  0
LINE
  8
0
  6
CONTINUOUS
 62
     3
  5
14E
 10
-173.289527
 20
-274.106628
 30
0.0
 11
-173.289527
 21
-299.482482
 31
0.0
  0
LINE
  8
0
  6
CONTINUOUS
 62
     3
  5
14F
 10
-173.289527
 20
-288.982482
 30
0.0
 11
-144.314527
 21
-288.982482
 31
0.0
  0
LINE
  8
0
  6
CONTINUOUS
 62
     3
  5
150
 10
-144.314527
 20
-288.982482
 30
0.0
 11
-144.314527
 21
-299.482482
 31
0.0
  0
LINE
  8
0
  6
CENTER
 62
    80
  5
151
 10
-156.814527
 20
-278.985917
 30
0.0
 11
-156.814527
 21
-310.693188
 31
0.0
  0
LINE
  8
0
  6
DASHED
 62
    80
  5
152
 10
-151.814527
 20
-288.982482
 30
0.0
 11
-151.814527
 21
-299.482482
 31
0.0
  0
LINE
  8
0
  6
DASHED
 62
    80
  5
153
 10
-161.814527
 20
-288.982482
 30
0.0
 11
-161.814527
 21
-299.482482
 31
0.0
  0
LINE
  8
0
  6
CONTINUOUS
 62
     3
  5
154
 10
-230.339527
 20
-299.482482
 30
0.0
 11
-259.314527
 21
-299.482482
 31
0.0
  0
LINE
  8
0
  6
CONTINUOUS
 62
     3
  5
155
 10
-230.339527
 20
-288.982482
 30
0.0
 11
-259.314527
 21
-288.982482
 31
0.0
  0
LINE
  8
0
  6
CENTER
 62
    80
  5
156
 10
-246.814527
 20
-278.985917
 30
0.0
 11
-246.814527
 21
-304.01476
 31
0.0
  0
LINE
  8
0
  6
DASHED
 62
    80
  5
157
 10
-241.814527
 20
-288.982482
 30
0.0
 11
-241.814527
 21
-299.482482
 31
0.0
  0
LINE
  8
0
  6
DASHED
 62
    80
  5
158
 10
-251.814527
 20
-288.982482
 30
0.0
 11
-251.814527
 21
-299.482482
 31
0.0
  0
LINE
  8
0
  6
CONTINUOUS
 62
     3
  5
159
 10
-259.314527
 20
-288.982482
 30
0.0
 11
-259.314527
 21
-299.482482
 31
0.0
  0
LINE
  8
0
  6
CONTINUOUS
 62
     3
  5
15A
 10
-238.564527
 20
-267.232482
 30
0.0
 11
-238.564527
 21
-288.982482
 31
0.0
  0
LINE
  8
0
  6
CONTINUOUS
 62
     3
  5
15B
 10
-230.339527
 20
-274.106628
 30
0.0
 11
-230.339527
 21
-299.482482
 31
0.0
  0
CIRCLE
  8
0
  6
DASHED
 62
    80
  5
15C
 10
-201.814527
 20
-244.482482
 30
0.0
 40
33.25
  0
LINE
  8
0
  6
CENTER
 62
    80
  5
15D
 10
-253.814527
 20
-280.984375
 30
0.0
 11
-253.814527
 21
-302.627346
 31
0.0
  0
LINE
  8
0
  6
CONTINUOUS
 62
     3
  5
15E
 10
-225.189527
 20
-219.107482
 30
0.0
 11
-178.439527
 21
-219.107482
 31
0.0
  0
LINE
  8
0
  6
CONTINUOUS
 62
     3
  5
15F
 10
-225.189527
 20
-269.857482
 30
0.0
 11
-178.439527
 21
-269.857482
 31
0.0
  0
LINE
  8
0
  6
CONTINUOUS
 62
     3
  5
160
 10
-227.189527
 20
-267.857482
 30
0.0
 11
-227.189527
 21
-221.107482
 31
0.0
  0
LINE
  8
0
  6
CONTINUOUS
 62
     3
  5
161
 10
-176.439527
 20
-267.857482
 30
0.0
 11
-176.439527
 21
-221.107482
 31
0.0
  0
ARC
  8
0
  6
CONTINUOUS
 62
     3
  5
162
 10
-250.564527
 20
-287.772399
 30
0.0
 40
2.0
 50
0.000003
 51
66.030522
  0
ARC
  8
0
  6
CONTINUOUS
 62
     3
  5
163
 10
-257.064527
 20
-287.772399
 30
0.0
 40
2.0
 50
113.969478
 51
179.999997
  0
ARC
  8
0
  6
CONTINUOUS
 62
     3
  5
164
 10
-253.814527
 20
-295.082519
 30
0.0
 40
10.0
 50
66.030522
 51
113.969488
  0
LINE
  8
0
  6
CONTINUOUS
 62
     3
  5
165
 10
-250.814527
 20
-288.982482
 30
0.0
 11
-250.814527
 21
-296.982482
 31
0.0
  0
LINE
  8
0
  6
CONTINUOUS
 62
     3
  5
166
 10
-248.564527
 20
-287.772399
 30
0.0
 11
-248.564527
 21
-288.982482
 31
0.0
  0
LINE
  8
0
  6
CONTINUOUS
 62
     3
  5
167
 10
-256.814527
 20
-288.982482
 30
0.0
 11
-256.814527
 21
-296.982482
 31
0.0
  0
LINE
  8
0
  6
CONTINUOUS
 62
     3
  5
168
 10
-259.064527
 20
-287.772399
 30
0.0
 11
-259.064527
 21
-288.982482
 31
0.0
  0
LINE
  8
0
  6
CONTINUOUS
 62
     3
  5
169
 10
-248.564527
 20
-288.982482
 30
0.0
 11
-259.064527
 21
-288.982482
 31
0.0
  0
POINT
  8
0
  6
CONTINUOUS
 62
   160
  5
16A
 10
-248.564527
 20
-288.982482
 30
0.0
  0
POINT
  8
0
  6
CONTINUOUS
 62
   160
  5
16B
 10
-259.064527
 20
-288.982482
 30
0.0
  0
POINT
  8
0
  6
CONTINUOUS
 62
   160
  5
16C
 10
-253.814527
 20
-288.982482
 30
0.0
  0
LINE
  8
0
  6
CONTINUOUS
 62
     3
  5
16D
 10
-250.814527
 20
-296.982482
 30
0.0
 11
-256.814527
 21
-296.982482
 31
0.0
  0
LINE
  8
0
  6
CENTER
 62
    80
  5
16E
 10
-251.614527
 20
-288.982482
 30
0.0
 11
-251.614527
 21
-296.982482
 31
0.0
  0
LINE
  8
0
  6
CENTER
 62
    80
  5
16F
 10
-256.014527
 20
-288.982482
 30
0.0
 11
-256.014527
 21
-296.982482
 31
0.0
  0
LINE
  8
0
  6
DASHED
 62
    80
  5
170
 10
-204.014527
 20
-266.357482
 30
0.0
 11
-204.014527
 21
-274.357482
 31
0.0
  0
LINE
  8
0
  6
DASHED
 62
    80
  5
171
 10
-199.614527
 20
-266.357482
 30
0.0
 11
-199.614527
 21
-274.357482
 31
0.0
  0
LINE
  8
0
  6
DASHED
 62
    80
  5
172
 10
-198.814527
 20
-274.357482
 30
0.0
 11
-204.814527
 21
-274.357482
 31
0.0
  0
POINT
  8
0
  6
CONTINUOUS
 62
   160
  5
173
 10
-201.814527
 20
-266.357482
 30
0.0
  0
POINT
  8
0
  6
CONTINUOUS
 62
   160
  5
174
 10
-207.064527
 20
-266.357482
 30
0.0
  0
POINT
  8
0
  6
CONTINUOUS
 62
   160
  5
175
 10
-196.564527
 20
-266.357482
 30
0.0
  0
LINE
  8
0
  6
DASHED
 62
    80
  5
176
 10
-196.564527
 20
-266.357482
 30
0.0
 11
-207.064527
 21
-266.357482
 31
0.0
  0
LINE
  8
0
  6
DASHED
 62
    80
  5
177
 10
-207.064527
 20
-265.147399
 30
0.0
 11
-207.064527
 21
-266.357482
 31
0.0
  0
LINE
  8
0
  6
DASHED
 62
    80
  5
178
 10
-204.814527
 20
-266.357482
 30
0.0
 11
-204.814527
 21
-274.357482
 31
0.0
  0
LINE
  8
0
  6
DASHED
 62
    80
  5
179
 10
-196.564527
 20
-265.147399
 30
0.0
 11
-196.564527
 21
-266.357482
 31
0.0
  0
LINE
  8
0
  6
DASHED
 62
    80
  5
17A
 10
-198.814527
 20
-266.357482
 30
0.0
 11
-198.814527
 21
-274.357482
 31
0.0
  0
ARC
  8
0
  6
DASHED
 62
    80
  5
17B
 10
-201.814527
 20
-272.457519
 30
0.0
 40
10.0
 50
66.030522
 51
113.969488
  0
ARC
  8
0
  6
DASHED
 62
    80
  5
17C
 10
-205.064527
 20
-265.147399
 30
0.0
 40
2.0
 50
113.969478
 51
179.999997
  0
ARC
  8
0
  6
DASHED
 62
    80
  5
17D
 10
-198.564527
 20
-265.147399
 30
0.0
 40
2.0
 50
0.000003
 51
66.030522
  0
ARC
  8
0
  6
CONTINUOUS
 62
     3
  5
17E
 10
-178.439527
 20
-221.107482
 30
0.0
 40
2.0
 50
0.0
 51
90.0
  0
ARC
  8
0
  6
CONTINUOUS
 62
     3
  5
17F
 10
-178.439527
 20
-267.857482
 30
0.0
 40
2.0
 50
270.0
 51
0.0
  0
ARC
  8
0
  6
CONTINUOUS
 62
     3
  5
180
 10
-225.189527
 20
-267.857482
 30
0.0
 40
2.0
 50
180.0
 51
270.0
  0
ARC
  8
0
  6
CONTINUOUS
 62
     3
  5
181
 10
-225.189527
 20
-221.107482
 30
0.0
 40
2.0
 50
90.0
 51
180.0
  0
CIRCLE
  8
0
  6
CONTINUOUS
 62
     3
  5
182
 10
-180.439527
 20
-223.107482
 30
0.0
 40
1.75
  0
CIRCLE
  8
0
  6
CONTINUOUS
 62
     3
  5
183
 10
-223.189527
 20
-223.107482
 30
0.0
 40
1.75
  0
CIRCLE
  8
0
  6
CONTINUOUS
 62
     3
  5
184
 10
-223.189527
 20
-265.857482
 30
0.0
 40
1.75
  0
CIRCLE
  8
0
  6
CONTINUOUS
 62
     3
  5
185
 10
-180.439527
 20
-265.857482
 30
0.0
 40
1.75
  0
LINE
  8
0
  6
CENTER
 62
    80
  5
186
 10
148.185473
 20
-85.171957
 30
0.0
 11
148.185473
 21
-310.693188
 31
0.0
  0
LINE
  8
0
  6
CONTINUOUS
 62
     3
  5
187
 10
90.685473
 20
-288.982482
 30
0.0
 11
90.685473
 21
-299.482482
 31
0.0
  0
LINE
  8
0
  6
DASHED
 62
    80
  5
188
 10
98.185473
 20
-288.982482
 30
0.0
 11
98.185473
 21
-299.482482
 31
0.0
  0
LINE
  8
0
  6
DASHED
 62
    80
  5
189
 10
108.185473
 20
-288.982482
 30
0.0
 11
108.185473
 21
-299.482482
 31
0.0
  0
LINE
  8
0
  6
CENTER
 62
    80
  5
18A
 10
103.185473
 20
-278.985917
 30
0.0
 11
103.185473
 21
-310.693188
 31
0.0
  0
LINE
  8
0
  6
CONTINUOUS
 62
     3
  5
18B
 10
205.685473
 20
-288.982482
 30
0.0
 11
90.685473
 21
-288.982482
 31
0.0
  0
LINE
  8
0
  6
CONTINUOUS
 62
     3
  5
18C
 10
205.685473
 20
-299.482482
 30
0.0
 11
90.685473
 21
-299.482482
 31
0.0
  0
LINE
  8
0
  6
DASHED
 62
    80
  5
18D
 10
188.185473
 20
-288.982482
 30
0.0
 11
188.185473
 21
-299.482482
 31
0.0
  0
LINE
  8
0
  6
DASHED
 62
    80
  5
18E
 10
198.185473
 20
-288.982482
 30
0.0
 11
198.185473
 21
-299.482482
 31
0.0
  0
LINE
  8
0
  6
CONTINUOUS
 62
     3
  5
18F
 10
205.685473
 20
-288.982482
 30
0.0
 11
205.685473
 21
-299.482482
 31
0.0
  0
LINE
  8
0
  6
CENTER
 62
    80
  5
190
 10
48.185473
 20
-244.482482
 30
0.0
 11
248.185473
 21
-244.482482
 31
0.0
  0
LINE
  8
0
  6
CONTINUOUS
 62
     3
  5
191
 10
116.685473
 20
-200.982482
 30
0.0
 11
116.685473
 21
-203.357482
 31
0.0
  0
LINE
  8
0
  6
CONTINUOUS
 62
     3
  5
192
 10
116.685473
 20
-200.982482
 30
0.0
 11
58.940009
 21
-193.9752
 31
0.0
  0
LINE
  8
0
  6
CONTINUOUS
 62
     3
  5
193
 10
179.685473
 20
-200.982482
 30
0.0
 11
237.430937
 21
-193.9752
 31
0.0
  0
LINE
  8
0
  6
CONTINUOUS
 62
     3
  5
194
 10
179.685473
 20
-200.982482
 30
0.0
 11
179.685473
 21
-288.982482
 31
0.0
  0
LINE
  8
0
  6
CONTINUOUS
 62
     3
  5
195
 10
116.685473
 20
-200.982482
 30
0.0
 11
179.685473
 21
-200.982482
 31
0.0
  0
LINE
  8
0
  6
CONTINUOUS
 62
     3
  5
196
 10
48.185473
 20
-160.732482
 30
0.0
 11
54.385022
 21
-160.732482
 31
0.0
  0
LINE
  8
0
  6
CONTINUOUS
 62
     3
  5
197
 10
204.193102
 20
-160.732482
 30
0.0
 11
92.177843
 21
-160.732482
 31
0.0
  0
ARC
  8
0
  6
CONTINUOUS
 62
     3
  5
198
 10
59.060473
 20
-192.982482
 30
0.0
 40
1.0
 50
180.0
 51
270.0
  0
LINE
  8
0
  6
CONTINUOUS
 62
     3
  5
199
 10
58.060473
 20
-185.232554
 30
0.0
 11
58.060473
 21
-192.982482
 31
0.0
  0
LINE
  8
0
  6
CONTINUOUS
 62
     3
  5
19A
 10
58.060473
 20
-185.232554
 30
0.0
 11
49.185473
 21
-185.232554
 31
0.0
  0
LINE
  8
0
  6
CONTINUOUS
 62
     3
  5
19B
 10
48.185473
 20
-184.232554
 30
0.0
 11
54.385022
 21
-181.732482
 31
0.0
  0
ARC
  8
0
  6
CONTINUOUS
 62
     3
  5
19C
 10
49.185473
 20
-184.232554
 30
0.0
 40
1.0
 50
180.0
 51
270.0
  0
LINE
  8
0
  6
CONTINUOUS
 62
     3
  5
19D
 10
248.185473
 20
-184.232554
 30
0.0
 11
241.985923
 21
-181.732482
 31
0.0
  0
ARC
  8
0
  6
CONTINUOUS
 62
     3
  5
19E
 10
237.310473
 20
-192.982482
 30
0.0
 40
1.0
 50
270.0
 51
0.0
  0
ARC
  8
0
  6
CONTINUOUS
 62
     3
  5
19F
 10
247.185473
 20
-184.232554
 30
0.0
 40
1.0
 50
270.0
 51
0.0
  0
LINE
  8
0
  6
CONTINUOUS
 62
     3
  5
1A0
 10
238.310473
 20
-185.232554
 30
0.0
 11
247.185473
 21
-185.232554
 31
0.0
  0
LINE
  8
0
  6
CONTINUOUS
 62
     3
  5
1A1
 10
238.310473
 20
-185.232554
 30
0.0
 11
238.310473
 21
-192.982482
 31
0.0
  0
LINE
  8
0
  6
CONTINUOUS
 62
     3
  5
1A2
 10
59.060473
 20
-193.982482
 30
0.0
 11
237.310473
 21
-193.982482
 31
0.0
  0
LINE
  8
0
  6
CONTINUOUS
 62
     3
  5
1A3
 10
60.915899
 20
-152.232482
 30
0.0
 11
60.915899
 21
-163.029711
 31
0.0
  0
LINE
  8
0
  6
CONTINUOUS
 62
     3
  5
1A4
 10
73.740434
 20
-152.232482
 30
0.0
 11
73.740434
 21
-163.029711
 31
0.0
  0
LINE
  8
0
  6
CONTINUOUS
 62
     3
  5
1A5
 10
73.740434
 20
-163.029711
 30
0.0
 11
60.915899
 21
-163.029711
 31
0.0
  0
LINE
  8
0
  6
CONTINUOUS
 62
     3
  5
1A6
 10
90.177843
 20
-150.232482
 30
0.0
 11
56.385022
 21
-150.232482
 31
0.0
  0
LINE
  8
0
  6
CONTINUOUS
 62
     3
  5
1A7
 10
92.177843
 20
-152.232482
 30
0.0
 11
92.177843
 21
-160.732482
 31
0.0
  0
ARC
  8
0
  6
CONTINUOUS
 62
     3
  5
1A8
 10
56.385022
 20
-152.232482
 30
0.0
 40
2.0
 50
90.0
 51
180.0
  0
ARC
  8
0
  6
CONTINUOUS
 62
     3
  5
1A9
 10
58.915899
 20
-152.232482
 30
0.0
 40
2.0
 50
0.0
 51
90.0
  0
ARC
  8
0
  6
CONTINUOUS
 62
     3
  5
1AA
 10
75.740434
 20
-152.232482
 30
0.0
 40
2.0
 50
90.0
 51
180.0
  0
ARC
  8
0
  6
CONTINUOUS
 62
     3
  5
1AB
 10
77.674989
 20
-152.232482
 30
0.0
 40
2.0
 50
0.0
 51
90.0
  0
ARC
  8
0
  6
CONTINUOUS
 62
     3
  5
1AC
 10
90.177843
 20
-152.232482
 30
0.0
 40
2.0
 50
0.0
 51
90.0
  0
LINE
  8
0
  6
CONTINUOUS
 62
     3
  5
1AD
 10
64.201824
 20
-161.529711
 30
0.0
 11
64.201824
 21
-163.029711
 31
0.0
  0
LINE
  8
0
  6
CONTINUOUS
 62
     3
  5
1AE
 10
66.201824
 20
-152.529711
 30
0.0
 11
66.201824
 21
-161.529711
 31
0.0
  0
LINE
  8
0
  6
CONTINUOUS
 62
     3
  5
1AF
 10
73.740434
 20
-161.529711
 30
0.0
 11
64.201824
 21
-161.529711
 31
0.0
  0
LINE
  8
0
  6
CONTINUOUS
 62
     3
  5
1B0
 10
73.740434
 20
-159.529711
 30
0.0
 11
66.201824
 21
-159.529711
 31
0.0
  0
LINE
  8
0
  6
CONTINUOUS
 62
     3
  5
1B1
 10
73.858678
 20
-151.529711
 30
0.0
 11
67.201824
 21
-151.529711
 31
0.0
  0
ARC
  8
0
  6
CONTINUOUS
 62
     3
  5
1B2
 10
67.201824
 20
-152.529711
 30
0.0
 40
1.0
 50
90.0
 51
180.0
  0
LINE
  8
0
  6
CONTINUOUS
 62
     3
  5
1B3
 10
79.674989
 20
-152.232482
 30
0.0
 11
79.674989
 21
-181.732482
 31
0.0
  0
LINE
  8
0
  6
CONTINUOUS
 62
     3
  5
1B4
 10
54.385022
 20
-152.232482
 30
0.0
 11
54.385022
 21
-181.732482
 31
0.0
  0
ARC
  8
0
  6
CONTINUOUS
 62
     3
  5
1B5
 10
229.169122
 20
-152.529711
 30
0.0
 40
1.0
 50
0.0
 51
90.0
  0
LINE
  8
0
  6
CONTINUOUS
 62
     3
  5
1B6
 10
222.512267
 20
-151.529711
 30
0.0
 11
229.169122
 21
-151.529711
 31
0.0
  0
LINE
  8
0
  6
CONTINUOUS
 62
     3
  5
1B7
 10
222.630511
 20
-159.529711
 30
0.0
 11
230.169122
 21
-159.529711
 31
0.0
  0
LINE
  8
0
  6
CONTINUOUS
 62
     3
  5
1B8
 10
222.630511
 20
-161.529711
 30
0.0
 11
232.169122
 21
-161.529711
 31
0.0
  0
LINE
  8
0
  6
CONTINUOUS
 62
     3
  5
1B9
 10
230.169122
 20
-152.529711
 30
0.0
 11
230.169122
 21
-161.529711
 31
0.0
  0
LINE
  8
0
  6
CONTINUOUS
 62
     3
  5
1BA
 10
232.169122
 20
-161.529711
 30
0.0
 11
232.169122
 21
-163.029711
 31
0.0
  0
LINE
  8
0
  6
CONTINUOUS
 62
     3
  5
1BB
 10
216.695956
 20
-181.732482
 30
0.0
 11
241.985923
 21
-181.732482
 31
0.0
  0
ARC
  8
0
  6
CONTINUOUS
 62
     3
  5
1BC
 10
147.872793
 20
493.164669
 30
0.0
 40
678.397224
 50
264.177346
 51
275.822654
  0
LINE
  8
0
  6
CONTINUOUS
 62
     3
  5
1BD
 10
248.185473
 20
-160.732482
 30
0.0
 11
241.985923
 21
-160.732482
 31
0.0
  0
ARC
  8
0
  6
CONTINUOUS
 62
     3
  5
1BE
 10
206.193102
 20
-152.232482
 30
0.0
 40
2.0
 50
90.0
 51
180.0
  0
ARC
  8
0
  6
CONTINUOUS
 62
     3
  5
1BF
 10
218.695956
 20
-152.232482
 30
0.0
 40
2.0
 50
90.0
 51
180.0
  0
ARC
  8
0
  6
CONTINUOUS
 62
     3
  5
1C0
 10
220.630511
 20
-152.232482
 30
0.0
 40
2.0
 50
0.0
 51
90.0
  0
ARC
  8
0
  6
CONTINUOUS
 62
     3
  5
1C1
 10
237.455046
 20
-152.232482
 30
0.0
 40
2.0
 50
90.0
 51
180.0
  0
ARC
  8
0
  6
CONTINUOUS
 62
     3
  5
1C2
 10
239.985923
 20
-152.232482
 30
0.0
 40
2.0
 50
0.0
 51
90.0
  0
LINE
  8
0
  6
CONTINUOUS
 62
     3
  5
1C3
 10
204.193102
 20
-152.232482
 30
0.0
 11
204.193102
 21
-160.732482
 31
0.0
  0
LINE
  8
0
  6
CONTINUOUS
 62
     3
  5
1C4
 10
206.193102
 20
-150.232482
 30
0.0
 11
239.985923
 21
-150.232482
 31
0.0
  0
LINE
  8
0
  6
CONTINUOUS
 62
     3
  5
1C5
 10
222.630511
 20
-163.029711
 30
0.0
 11
235.455046
 21
-163.029711
 31
0.0
  0
LINE
  8
0
  6
CONTINUOUS
 62
     3
  5
1C6
 10
216.695956
 20
-152.232482
 30
0.0
 11
216.695956
 21
-181.732482
 31
0.0
  0
LINE
  8
0
  6
CONTINUOUS
 62
     3
  5
1C7
 10
222.630511
 20
-152.232482
 30
0.0
 11
222.630511
 21
-163.029711
 31
0.0
  0
LINE
  8
0
  6
CONTINUOUS
 62
     3
  5
1C8
 10
235.455046
 20
-152.232482
 30
0.0
 11
235.455046
 21
-163.029711
 31
0.0
  0
LINE
  8
0
  6
CONTINUOUS
 62
     3
  5
1C9
 10
241.985923
 20
-152.232482
 30
0.0
 11
241.985923
 21
-181.732482
 31
0.0
  0
LINE
  8
0
  6
CONTINUOUS
 62
     3
  5
1CA
 10
54.385022
 20
-181.732482
 30
0.0
 11
79.049629
 21
-181.732482
 31
0.0
  0
LINE
  8
0
  6
CONTINUOUS
 62
     3
  5
1CB
 10
248.185473
 20
-133.048913
 30
0.0
 11
248.185473
 21
-184.232554
 31
0.0
  0
LINE
  8
0
  6
CONTINUOUS
 62
     3
  5
1CC
 10
48.185473
 20
-123.209368
 30
0.0
 11
48.185473
 21
-184.232554
 31
0.0
  0
LINE
  8
0
  6
CONTINUOUS
 62
     3
  5
1CD
 10
48.185473
 20
-169.482482
 30
0.0
 11
248.185473
 21
-169.482482
 31
0.0
  0
POLYLINE
  8
0
  6
CONTINUOUS
 62
     3
  5
1CE
 66
     1
 10
0.0
 20
0.0
 30
0.0
  0
VERTEX
  8
0
  6
CONTINUOUS
 62
     3
  5
404
 10
32.504573
 20
-117.929913
 30
0.0
  0
VERTEX
  8
0
  6
CONTINUOUS
 62
     3
  5
405
 10
33.470653
 20
-118.303539
 30
0.0
  0
VERTEX
  8
0
  6
CONTINUOUS
 62
     3
  5
406
 10
34.439363
 20
-118.672023
 30
0.0
  0
VERTEX
  8
0
  6
CONTINUOUS
 62
     3
  5
407
 10
35.410646
 20
-119.035248
 30
0.0
  0
VERTEX
  8
0
  6
CONTINUOUS
 62
     3
  5
408
 10
36.384446
 20
-119.393101
 30
0.0
  0
VERTEX
  8
0
  6
CONTINUOUS
 62
     3
  5
409
 10
37.360705
 20
-119.745465
 30
0.0
  0
VERTEX
  8
0
  6
CONTINUOUS
 62
     3
  5
40A
 10
38.339367
 20
-120.092225
 30
0.0
  0
VERTEX
  8
0
  6
CONTINUOUS
 62
     3
  5
40B
 10
39.320373
 20
-120.433266
 30
0.0
  0
VERTEX
  8
0
  6
CONTINUOUS
 62
     3
  5
40C
 10
40.303668
 20
-120.768473
 30
0.0
  0
VERTEX
  8
0
  6
CONTINUOUS
 62
     3
  5
40D
 10
41.289195
 20
-121.09773
 30
0.0
  0
VERTEX
  8
0
  6
CONTINUOUS
 62
     3
  5
40E
 10
42.276895
 20
-121.420923
 30
0.0
  0
VERTEX
  8
0
  6
CONTINUOUS
 62
     3
  5
40F
 10
43.266713
 20
-121.737935
 30
0.0
  0
VERTEX
  8
0
  6
CONTINUOUS
 62
     3
  5
410
 10
44.25859
 20
-122.048651
 30
0.0
  0
VERTEX
  8
0
  6
CONTINUOUS
 62
     3
  5
411
 10
45.252471
 20
-122.352957
 30
0.0
  0
VERTEX
  8
0
  6
CONTINUOUS
 62
     3
  5
412
 10
46.248298
 20
-122.650737
 30
0.0
  0
VERTEX
  8
0
  6
CONTINUOUS
 62
     3
  5
413
 10
47.246014
 20
-122.941875
 30
0.0
  0
VERTEX
  8
0
  6
CONTINUOUS
 62
     3
  5
414
 10
48.245563
 20
-123.226257
 30
0.0
  0
VERTEX
  8
0
  6
CONTINUOUS
 62
     3
  5
415
 10
49.246886
 20
-123.503767
 30
0.0
  0
VERTEX
  8
0
  6
CONTINUOUS
 62
     3
  5
416
 10
50.249927
 20
-123.774289
 30
0.0
  0
VERTEX
  8
0
  6
CONTINUOUS
 62
     3
  5
417
 10
51.254629
 20
-124.037709
 30
0.0
  0
VERTEX
  8
0
  6
CONTINUOUS
 62
     3
  5
418
 10
52.260935
 20
-124.293911
 30
0.0
  0
VERTEX
  8
0
  6
CONTINUOUS
 62
     3
  5
419
 10
53.268788
 20
-124.54278
 30
0.0
  0
VERTEX
  8
0
  6
CONTINUOUS
 62
     3
  5
41A
 10
54.278131
 20
-124.784201
 30
0.0
  0
VERTEX
  8
0
  6
CONTINUOUS
 62
     3
  5
41B
 10
55.288906
 20
-125.018058
 30
0.0
  0
VERTEX
  8
0
  6
CONTINUOUS
 62
     3
  5
41C
 10
56.301058
 20
-125.244236
 30
0.0
  0
VERTEX
  8
0
  6
CONTINUOUS
 62
     3
  5
41D
 10
57.314528
 20
-125.462619
 30
0.0
  0
VERTEX
  8
0
  6
CONTINUOUS
 62
     3
  5
41E
 10
58.32926
 20
-125.673093
 30
0.0
  0
VERTEX
  8
0
  6
CONTINUOUS
 62
     3
  5
41F
 10
59.345197
 20
-125.875543
 30
0.0
  0
VERTEX
  8
0
  6
CONTINUOUS
 62
     3
  5
420
 10
60.362281
 20
-126.069852
 30
0.0
  0
VERTEX
  8
0
  6
CONTINUOUS
 62
     3
  5
421
 10
61.380456
 20
-126.255905
 30
0.0
  0
VERTEX
  8
0
  6
CONTINUOUS
 62
     3
  5
422
 10
62.399665
 20
-126.433588
 30
0.0
  0
VERTEX
  8
0
  6
CONTINUOUS
 62
     3
  5
423
 10
63.41985
 20
-126.602785
 30
0.0
  0
VERTEX
  8
0
  6
CONTINUOUS
 62
     3
  5
424
 10
64.440955
 20
-126.76338
 30
0.0
  0
VERTEX
  8
0
  6
CONTINUOUS
 62
     3
  5
425
 10
66.16006
 20
-127.013934
 30
0.0
  0
VERTEX
  8
0
  6
CONTINUOUS
 62
     3
  5
426
 10
67.881512
 20
-127.240484
 30
0.0
  0
VERTEX
  8
0
  6
CONTINUOUS
 62
     3
  5
427
 10
69.60522
 20
-127.443678
 30
0.0
  0
VERTEX
  8
0
  6
CONTINUOUS
 62
     3
  5
428
 10
71.33109
 20
-127.624161
 30
0.0
  0
VERTEX
  8
0
  6
CONTINUOUS
 62
     3
  5
429
 10
73.059032
 20
-127.782581
 30
0.0
  0
VERTEX
  8
0
  6
CONTINUOUS
 62
     3
  5
42A
 10
74.788952
 20
-127.919585
 30
0.0
  0
VERTEX
  8
0
  6
CONTINUOUS
 62
     3
  5
42B
 10
76.520759
 20
-128.03582
 30
0.0
  0
VERTEX
  8
0
  6
CONTINUOUS
 62
     3
  5
42C
 10
78.254361
 20
-128.131933
 30
0.0
  0
VERTEX
  8
0
  6
CONTINUOUS
 62
     3
  5
42D
 10
79.989665
 20
-128.20857
 30
0.0
  0
VERTEX
  8
0
  6
CONTINUOUS
 62
     3
  5
42E
 10
81.72658
 20
-128.266379
 30
0.0
  0
VERTEX
  8
0
  6
CONTINUOUS
 62
     3
  5
42F
 10
83.465013
 20
-128.306006
 30
0.0
  0
VERTEX
  8
0
  6
CONTINUOUS
 62
     3
  5
430
 10
85.204872
 20
-128.328099
 30
0.0
  0
VERTEX
  8
0
  6
CONTINUOUS
 62
     3
  5
431
 10
86.946066
 20
-128.333303
 30
0.0
  0
VERTEX
  8
0
  6
CONTINUOUS
 62
     3
  5
432
 10
88.688501
 20
-128.322267
 30
0.0
  0
VERTEX
  8
0
  6
CONTINUOUS
 62
     3
  5
433
 10
90.432087
 20
-128.295636
 30
0.0
  0
VERTEX
  8
0
  6
CONTINUOUS
 62
     3
  5
434
 10
92.17673
 20
-128.254059
 30
0.0
  0
VERTEX
  8
0
  6
CONTINUOUS
 62
     3
  5
435
 10
93.92234
 20
-128.198181
 30
0.0
  0
VERTEX
  8
0
  6
CONTINUOUS
 62
     3
  5
436
 10
95.668823
 20
-128.12865
 30
0.0
  0
VERTEX
  8
0
  6
CONTINUOUS
 62
     3
  5
437
 10
97.416087
 20
-128.046113
 30
0.0
  0
VERTEX
  8
0
  6
CONTINUOUS
 62
     3
  5
438
 10
99.164041
 20
-127.951216
 30
0.0
  0
VERTEX
  8
0
  6
CONTINUOUS
 62
     3
  5
439
 10
100.912593
 20
-127.844606
 30
0.0
  0
VERTEX
  8
0
  6
CONTINUOUS
 62
     3
  5
43A
 10
102.66165
 20
-127.726931
 30
0.0
  0
VERTEX
  8
0
  6
CONTINUOUS
 62
     3
  5
43B
 10
104.41112
 20
-127.598837
 30
0.0
  0
VERTEX
  8
0
  6
CONTINUOUS
 62
     3
  5
43C
 10
106.160911
 20
-127.460971
 30
0.0
  0
VERTEX
  8
0
  6
CONTINUOUS
 62
     3
  5
43D
 10
107.910931
 20
-127.31398
 30
0.0
  0
VERTEX
  8
0
  6
CONTINUOUS
 62
     3
  5
43E
 10
109.661088
 20
-127.158511
 30
0.0
  0
VERTEX
  8
0
  6
CONTINUOUS
 62
     3
  5
43F
 10
111.41129
 20
-126.995211
 30
0.0
  0
VERTEX
  8
0
  6
CONTINUOUS
 62
     3
  5
440
 10
113.161445
 20
-126.824726
 30
0.0
  0
VERTEX
  8
0
  6
CONTINUOUS
 62
     3
  5
441
 10
114.91146
 20
-126.647704
 30
0.0
  0
VERTEX
  8
0
  6
CONTINUOUS
 62
     3
  5
442
 10
116.661244
 20
-126.464792
 30
0.0
  0
VERTEX
  8
0
  6
CONTINUOUS
 62
     3
  5
443
 10
118.410704
 20
-126.276636
 30
0.0
  0
VERTEX
  8
0
  6
CONTINUOUS
 62
     3
  5
444
 10
120.159749
 20
-126.083883
 30
0.0
  0
VERTEX
  8
0
  6
CONTINUOUS
 62
     3
  5
445
 10
121.527074
 20
-125.930427
 30
0.0
  0
VERTEX
  8
0
  6
CONTINUOUS
 62
     3
  5
446
 10
122.894067
 20
-125.775177
 30
0.0
  0
VERTEX
  8
0
  6
CONTINUOUS
 62
     3
  5
447
 10
124.260709
 20
-125.618755
 30
0.0
  0
VERTEX
  8
0
  6
CONTINUOUS
 62
     3
  5
448
 10
125.626979
 20
-125.461782
 30
0.0
  0
VERTEX
  8
0
  6
CONTINUOUS
 62
     3
  5
449
 10
126.992855
 20
-125.30488
 30
0.0
  0
VERTEX
  8
0
  6
CONTINUOUS
 62
     3
  5
44A
 10
128.358318
 20
-125.148669
 30
0.0
  0
VERTEX
  8
0
  6
CONTINUOUS
 62
     3
  5
44B
 10
129.723347
 20
-124.993773
 30
0.0
  0
VERTEX
  8
0
  6
CONTINUOUS
 62
     3
  5
44C
 10
131.087921
 20
-124.840811
 30
0.0
  0
VERTEX
  8
0
  6
CONTINUOUS
 62
     3
  5
44D
 10
132.452019
 20
-124.690405
 30
0.0
  0
VERTEX
  8
0
  6
CONTINUOUS
 62
     3
  5
44E
 10
133.815621
 20
-124.543177
 30
0.0
  0
VERTEX
  8
0
  6
CONTINUOUS
 62
     3
  5
44F
 10
135.178707
 20
-124.399749
 30
0.0
  0
VERTEX
  8
0
  6
CONTINUOUS
 62
     3
  5
450
 10
136.541255
 20
-124.26074
 30
0.0
  0
VERTEX
  8
0
  6
CONTINUOUS
 62
     3
  5
451
 10
137.903245
 20
-124.126774
 30
0.0
  0
VERTEX
  8
0
  6
CONTINUOUS
 62
     3
  5
452
 10
139.264656
 20
-123.998471
 30
0.0
  0
VERTEX
  8
0
  6
CONTINUOUS
 62
     3
  5
453
 10
140.625468
 20
-123.876454
 30
0.0
  0
VERTEX
  8
0
  6
CONTINUOUS
 62
     3
  5
454
 10
141.98566
 20
-123.761342
 30
0.0
  0
VERTEX
  8
0
  6
CONTINUOUS
 62
     3
  5
455
 10
143.345212
 20
-123.653758
 30
0.0
  0
VERTEX
  8
0
  6
CONTINUOUS
 62
     3
  5
456
 10
144.704102
 20
-123.554323
 30
0.0
  0
VERTEX
  8
0
  6
CONTINUOUS
 62
     3
  5
457
 10
146.06231
 20
-123.463659
 30
0.0
  0
VERTEX
  8
0
  6
CONTINUOUS
 62
     3
  5
458
 10
147.419816
 20
-123.382387
 30
0.0
  0
VERTEX
  8
0
  6
CONTINUOUS
 62
     3
  5
459
 10
148.776599
 20
-123.311128
 30
0.0
  0
VERTEX
  8
0
  6
CONTINUOUS
 62
     3
  5
45A
 10
150.132639
 20
-123.250504
 30
0.0
  0
VERTEX
  8
0
  6
CONTINUOUS
 62
     3
  5
45B
 10
151.487914
 20
-123.201136
 30
0.0
  0
VERTEX
  8
0
  6
CONTINUOUS
 62
     3
  5
45C
 10
152.842403
 20
-123.163646
 30
0.0
  0
VERTEX
  8
0
  6
CONTINUOUS
 62
     3
  5
45D
 10
154.196088
 20
-123.138655
 30
0.0
  0
VERTEX
  8
0
  6
CONTINUOUS
 62
     3
  5
45E
 10
155.548946
 20
-123.126785
 30
0.0
  0
VERTEX
  8
0
  6
CONTINUOUS
 62
     3
  5
45F
 10
156.900957
 20
-123.128656
 30
0.0
  0
VERTEX
  8
0
  6
CONTINUOUS
 62
     3
  5
460
 10
158.252101
 20
-123.144891
 30
0.0
  0
VERTEX
  8
0
  6
CONTINUOUS
 62
     3
  5
461
 10
159.602356
 20
-123.176111
 30
0.0
  0
VERTEX
  8
0
  6
CONTINUOUS
 62
     3
  5
462
 10
160.951703
 20
-123.222937
 30
0.0
  0
VERTEX
  8
0
  6
CONTINUOUS
 62
     3
  5
463
 10
162.300121
 20
-123.28599
 30
0.0
  0
VERTEX
  8
0
  6
CONTINUOUS
 62
     3
  5
464
 10
163.647588
 20
-123.365893
 30
0.0
  0
VERTEX
  8
0
  6
CONTINUOUS
 62
     3
  5
465
 10
165.159544
 20
-123.476132
 30
0.0
  0
VERTEX
  8
0
  6
CONTINUOUS
 62
     3
  5
466
 10
166.670362
 20
-123.607245
 30
0.0
  0
VERTEX
  8
0
  6
CONTINUOUS
 62
     3
  5
467
 10
168.180127
 20
-123.758079
 30
0.0
  0
VERTEX
  8
0
  6
CONTINUOUS
 62
     3
  5
468
 10
169.688927
 20
-123.927477
 30
0.0
  0
VERTEX
  8
0
  6
CONTINUOUS
 62
     3
  5
469
 10
171.196846
 20
-124.114286
 30
0.0
  0
VERTEX
  8
0
  6
CONTINUOUS
 62
     3
  5
46A
 10
172.703972
 20
-124.317351
 30
0.0
  0
VERTEX
  8
0
  6
CONTINUOUS
 62
     3
  5
46B
 10
174.210388
 20
-124.535516
 30
0.0
  0
VERTEX
  8
0
  6
CONTINUOUS
 62
     3
  5
46C
 10
175.716182
 20
-124.767628
 30
0.0
  0
VERTEX
  8
0
  6
CONTINUOUS
 62
     3
  5
46D
 10
177.22144
 20
-125.012531
 30
0.0
  0
VERTEX
  8
0
  6
CONTINUOUS
 62
     3
  5
46E
 10
178.726247
 20
-125.269071
 30
0.0
  0
VERTEX
  8
0
  6
CONTINUOUS
 62
     3
  5
46F
 10
180.23069
 20
-125.536093
 30
0.0
  0
VERTEX
  8
0
  6
CONTINUOUS
 62
     3
  5
470
 10
181.734853
 20
-125.812442
 30
0.0
  0
VERTEX
  8
0
  6
CONTINUOUS
 62
     3
  5
471
 10
183.238824
 20
-126.096964
 30
0.0
  0
VERTEX
  8
0
  6
CONTINUOUS
 62
     3
  5
472
 10
184.742688
 20
-126.388503
 30
0.0
  0
VERTEX
  8
0
  6
CONTINUOUS
 62
     3
  5
473
 10
186.246531
 20
-126.685906
 30
0.0
  0
VERTEX
  8
0
  6
CONTINUOUS
 62
     3
  5
474
 10
187.750438
 20
-126.988017
 30
0.0
  0
VERTEX
  8
0
  6
CONTINUOUS
 62
     3
  5
475
 10
189.254497
 20
-127.293681
 30
0.0
  0
VERTEX
  8
0
  6
CONTINUOUS
 62
     3
  5
476
 10
190.758792
 20
-127.601745
 30
0.0
  0
VERTEX
  8
0
  6
CONTINUOUS
 62
     3
  5
477
 10
192.263411
 20
-127.911052
 30
0.0
  0
VERTEX
  8
0
  6
CONTINUOUS
 62
     3
  5
478
 10
193.768437
 20
-128.220449
 30
0.0
  0
VERTEX
  8
0
  6
CONTINUOUS
 62
     3
  5
479
 10
195.273959
 20
-128.528781
 30
0.0
  0
VERTEX
  8
0
  6
CONTINUOUS
 62
     3
  5
47A
 10
196.780061
 20
-128.834892
 30
0.0
  0
VERTEX
  8
0
  6
CONTINUOUS
 62
     3
  5
47B
 10
198.286829
 20
-129.137629
 30
0.0
  0
VERTEX
  8
0
  6
CONTINUOUS
 62
     3
  5
47C
 10
199.794349
 20
-129.435836
 30
0.0
  0
VERTEX
  8
0
  6
CONTINUOUS
 62
     3
  5
47D
 10
201.302708
 20
-129.728359
 30
0.0
  0
VERTEX
  8
0
  6
CONTINUOUS
 62
     3
  5
47E
 10
202.811991
 20
-130.014043
 30
0.0
  0
VERTEX
  8
0
  6
CONTINUOUS
 62
     3
  5
47F
 10
204.322285
 20
-130.291733
 30
0.0
  0
VERTEX
  8
0
  6
CONTINUOUS
 62
     3
  5
480
 10
205.833674
 20
-130.560275
 30
0.0
  0
VERTEX
  8
0
  6
CONTINUOUS
 62
     3
  5
481
 10
207.346245
 20
-130.818513
 30
0.0
  0
VERTEX
  8
0
  6
CONTINUOUS
 62
     3
  5
482
 10
208.860084
 20
-131.065294
 30
0.0
  0
VERTEX
  8
0
  6
CONTINUOUS
 62
     3
  5
483
 10
210.375277
 20
-131.299462
 30
0.0
  0
VERTEX
  8
0
  6
CONTINUOUS
 62
     3
  5
484
 10
211.891909
 20
-131.519863
 30
0.0
  0
VERTEX
  8
0
  6
CONTINUOUS
 62
     3
  5
485
 10
213.726327
 20
-131.76657
 30
0.0
  0
VERTEX
  8
0
  6
CONTINUOUS
 62
     3
  5
486
 10
215.562846
 20
-131.992027
 30
0.0
  0
VERTEX
  8
0
  6
CONTINUOUS
 62
     3
  5
487
 10
217.401339
 20
-132.196767
 30
0.0
  0
VERTEX
  8
0
  6
CONTINUOUS
 62
     3
  5
488
 10
219.241679
 20
-132.381325
 30
0.0
  0
VERTEX
  8
0
  6
CONTINUOUS
 62
     3
  5
489
 10
221.083742
 20
-132.546233
 30
0.0
  0
VERTEX
  8
0
  6
CONTINUOUS
 62
     3
  5
48A
 10
222.927399
 20
-132.692024
 30
0.0
  0
VERTEX
  8
0
  6
CONTINUOUS
 62
     3
  5
48B
 10
224.772525
 20
-132.819232
 30
0.0
  0
VERTEX
  8
0
  6
CONTINUOUS
 62
     3
  5
48C
 10
226.618993
 20
-132.92839
 30
0.0
  0
VERTEX
  8
0
  6
CONTINUOUS
 62
     3
  5
48D
 10
228.466677
 20
-133.020031
 30
0.0
  0
VERTEX
  8
0
  6
CONTINUOUS
 62
     3
  5
48E
 10
230.31545
 20
-133.09469
 30
0.0
  0
VERTEX
  8
0
  6
CONTINUOUS
 62
     3
  5
48F
 10
232.165186
 20
-133.152898
 30
0.0
  0
VERTEX
  8
0
  6
CONTINUOUS
 62
     3
  5
490
 10
234.015759
 20
-133.19519
 30
0.0
  0
VERTEX
  8
0
  6
CONTINUOUS
 62
     3
  5
491
 10
235.867041
 20
-133.222099
 30
0.0
  0
VERTEX
  8
0
  6
CONTINUOUS
 62
     3
  5
492
 10
237.718908
 20
-133.234157
 30
0.0
  0
VERTEX
  8
0
  6
CONTINUOUS
 62
     3
  5
493
 10
239.571231
 20
-133.231899
 30
0.0
  0
VERTEX
  8
0
  6
CONTINUOUS
 62
     3
  5
494
 10
241.423886
 20
-133.215858
 30
0.0
  0
VERTEX
  8
0
  6
CONTINUOUS
 62
     3
  5
495
 10
243.276745
 20
-133.186567
 30
0.0
  0
VERTEX
  8
0
  6
CONTINUOUS
 62
     3
  5
496
 10
245.129682
 20
-133.144559
 30
0.0
  0
VERTEX
  8
0
  6
CONTINUOUS
 62
     3
  5
497
 10
246.98257
 20
-133.090368
 30
0.0
  0
VERTEX
  8
0
  6
CONTINUOUS
 62
     3
  5
498
 10
248.835284
 20
-133.024527
 30
0.0
  0
VERTEX
  8
0
  6
CONTINUOUS
 62
     3
  5
499
 10
250.687696
 20
-132.947569
 30
0.0
  0
VERTEX
  8
0
  6
CONTINUOUS
 62
     3
  5
49A
 10
252.539681
 20
-132.860028
 30
0.0
  0
VERTEX
  8
0
  6
CONTINUOUS
 62
     3
  5
49B
 10
254.391111
 20
-132.762436
 30
0.0
  0
VERTEX
  8
0
  6
CONTINUOUS
 62
     3
  5
49C
 10
256.241861
 20
-132.655328
 30
0.0
  0
VERTEX
  8
0
  6
CONTINUOUS
 62
     3
  5
49D
 10
258.091804
 20
-132.539237
 30
0.0
  0
VERTEX
  8
0
  6
CONTINUOUS
 62
     3
  5
49E
 10
259.940814
 20
-132.414696
 30
0.0
  0
VERTEX
  8
0
  6
CONTINUOUS
 62
     3
  5
49F
 10
261.788763
 20
-132.282238
 30
0.0
  0
VERTEX
  8
0
  6
CONTINUOUS
 62
     3
  5
4A0
 10
263.635527
 20
-132.142396
 30
0.0
  0
VERTEX
  8
0
  6
CONTINUOUS
 62
     3
  5
4A1
 10
265.480978
 20
-131.995705
 30
0.0
  0
VERTEX
  8
0
  6
CONTINUOUS
 62
     3
  5
4A2
 10
267.32499
 20
-131.842696
 30
0.0
  0
VERTEX
  8
0
  6
CONTINUOUS
 62
     3
  5
4A3
 10
269.167436
 20
-131.683905
 30
0.0
  0
VERTEX
  8
0
  6
CONTINUOUS
 62
     3
  5
4A4
 10
271.008191
 20
-131.519863
 30
0.0
  0
SEQEND
  8
0
  6
CONTINUOUS
 62
     3
  5
4A5
  0
LINE
  8
0
  6
DASHED
 62
    80
  5
1CF
 10
79.935473
 20
-235.482482
 30
0.0
 11
79.935473
 21
-253.482482
 31
0.0
  0
LINE
  8
0
  6
CONTINUOUS
 62
     3
  5
1D0
 10
81.935473
 20
-203.357482
 30
0.0
 11
116.685473
 21
-203.357482
 31
0.0
  0
ARC
  8
0
  6
CONTINUOUS
 62
     3
  5
1D1
 10
81.935473
 20
-205.357482
 30
0.0
 40
2.0
 50
90.0
 51
180.0
  0
LINE
  8
0
  6
CONTINUOUS
 62
     3
  5
1D2
 10
116.685473
 20
-288.982482
 30
0.0
 11
116.685473
 21
-285.607482
 31
0.0
  0
LINE
  8
0
  6
CONTINUOUS
 62
     3
  5
1D3
 10
81.935473
 20
-285.607482
 30
0.0
 11
116.685473
 21
-285.607482
 31
0.0
  0
ARC
  8
0
  6
CONTINUOUS
 62
     3
  5
1D4
 10
81.935473
 20
-283.607482
 30
0.0
 40
2.0
 50
180.0
 51
270.0
  0
CIRCLE
  8
0
  6
CONTINUOUS
 62
     3
  5
1D5
 10
148.185473
 20
-244.482482
 30
0.0
 40
22.75
  0
CIRCLE
  8
0
  6
DASHED
 62
    80
  5
1D6
 10
148.185473
 20
-244.482482
 30
0.0
 40
16.625
  0
CIRCLE
  8
0
  6
CONTINUOUS
 62
     3
  5
1D7
 10
148.185473
 20
-244.482482
 30
0.0
 40
15.625
  0
LINE
  8
0
  6
CONTINUOUS
 62
     3
  5
1D8
 10
67.685473
 20
-232.232482
 30
0.0
 11
129.015183
 21
-232.232482
 31
0.0
  0
LINE
  8
0
  6
CONTINUOUS
 62
     3
  5
1D9
 10
67.685473
 20
-256.732482
 30
0.0
 11
129.015183
 21
-256.732482
 31
0.0
  0
LINE
  8
0
  6
CONTINUOUS
 62
     3
  5
1DA
 10
67.685473
 20
-232.232482
 30
0.0
 11
67.685473
 21
-256.732482
 31
0.0
  0
LINE
  8
0
  6
CONTINUOUS
 62
     3
  5
1DB
 10
92.185473
 20
-203.357482
 30
0.0
 11
92.185473
 21
-285.607482
 31
0.0
  0
LINE
  8
0
  6
DASHED
 62
    80
  5
1DC
 10
79.935473
 20
-252.982482
 30
0.0
 11
79.935473
 21
-235.982482
 31
0.0
  0
LINE
  8
0
  6
DASHED
 62
    80
  5
1DD
 10
69.435473
 20
-250.982482
 30
0.0
 11
78.435473
 21
-250.982482
 31
0.0
  0
ARC
  8
0
  6
DASHED
 62
    80
  5
1DE
 10
69.435473
 20
-249.982482
 30
0.0
 40
1.0
 50
180.0
 51
270.0
  0
LINE
  8
0
  6
DASHED
 62
    80
  5
1DF
 10
78.435473
 20
-252.982482
 30
0.0
 11
79.935473
 21
-252.982482
 31
0.0
  0
LINE
  8
0
  6
DASHED
 62
    80
  5
1E0
 10
78.435473
 20
-252.982482
 30
0.0
 11
78.435473
 21
-235.982482
 31
0.0
  0
LINE
  8
0
  6
DASHED
 62
    80
  5
1E1
 10
78.435473
 20
-235.982482
 30
0.0
 11
79.935473
 21
-235.982482
 31
0.0
  0
ARC
  8
0
  6
DASHED
 62
    80
  5
1E2
 10
69.435473
 20
-238.982482
 30
0.0
 40
1.0
 50
90.0
 51
180.0
  0
LINE
  8
0
  6
DASHED
 62
    80
  5
1E3
 10
68.435473
 20
-249.982482
 30
0.0
 11
68.435473
 21
-238.982482
 31
0.0
  0
LINE
  8
0
  6
DASHED
 62
    80
  5
1E4
 10
76.435473
 20
-250.982482
 30
0.0
 11
76.435473
 21
-237.982482
 31
0.0
  0
LINE
  8
0
  6
DASHED
 62
    80
  5
1E5
 10
69.435473
 20
-237.982482
 30
0.0
 11
78.435473
 21
-237.982482
 31
0.0
  0
LINE
  8
0
  6
DASHED
 62
    80
  5
1E6
 10
67.685473
 20
-235.482482
 30
0.0
 11
79.935473
 21
-235.482482
 31
0.0
  0
LINE
  8
0
  6
DASHED
 62
    80
  5
1E7
 10
67.685473
 20
-253.482482
 30
0.0
 11
79.935473
 21
-253.482482
 31
0.0
  0
LINE
  8
0
  6
CONTINUOUS
 62
     3
  5
1E8
 10
79.935473
 20
-205.357482
 30
0.0
 11
79.935473
 21
-232.232482
 31
0.0
  0
ARC
  8
0
  6
CONTINUOUS
 62
     3
  5
1E9
 10
81.935473
 20
-283.607482
 30
0.0
 40
2.0
 50
180.0
 51
270.0
  0
LINE
  8
0
  6
CONTINUOUS
 62
     3
  5
1EA
 10
79.935473
 20
-283.607482
 30
0.0
 11
79.935473
 21
-256.732482
 31
0.0
  0
DIMENSION
  8
0
  6
CONTINUOUS
 62
     7
  5
1FE
  2
*D1
 10
-57.348264
 20
109.78023
 30
0.0
 11
-57.348264
 21
209.78023
 31
0.0
 70
   128
  1
<>
 13
-201.814527
 23
309.78023
 33
0.0
 14
-201.814527
 24
109.78023
 34
0.0
 50
90.0
  3
MXDIMSTYLE
1001
ACAD
1000
DSTYLE
1002
{
1070
     6
1000
_OPEN
1070
     7
1000
_OPEN
1070
    41
1040
3.0
1070
   173
1070
     1
1070
   271
1070
     2
1070
   284
1070
     8
1070
   340
1005
1F8
1070
   341
1005
1F0
1002
}
  0
DIMENSION
  8
0
  6
CONTINUOUS
 62
     7
  5
20B
  2
*D3
 10
-301.814527
 20
92.356556
 30
0.0
 11
-251.814527
 21
92.356556
 31
0.0
 70
   128
  1
<>
 13
-201.814527
 23
92.356556
 33
0.0
 14
-301.814527
 24
209.780231
 34
0.0
  3
MXDIMSTYLE
1001
ACAD
1000
DSTYLE
1002
{
1070
     6
1000
_OPEN
1070
     7
1000
_OPEN
1070
    41
1040
3.0
1070
    75
1070
     1
1070
   173
1070
     1
1070
   271
1070
     2
1070
   284
1070
     8
1070
   340
1005
205
1070
   341
1005
1F0
1002
}
  0
DIMENSION
  8
0
  6
CONTINUOUS
 62
     7
  5
218
  2
*D4
 10
-148.314527
 20
92.356556
 30
0.0
 11
-175.064527
 21
92.356556
 31
0.0
 70
   128
  1
<>
 13
-201.814527
 23
80.57027
 33
0.0
 14
-148.314527
 24
187.03023
 34
0.0
  3
MXDIMSTYLE
1001
ACAD
1000
DSTYLE
1002
{
1070
     6
1000
_OPEN
1070
     7
1000
_OPEN
1070
    41
1040
3.0
1070
    75
1070
     1
1070
   173
1070
     1
1070
   271
1070
     2
1070
   284
1070
     8
1070
   340
1005
212
1070
   341
1005
1F0
1002
}
  0
LINE
  8
0
  6
DASHED
 62
    80
  5
219
 10
-165.158397
 20
226.40523
 30
0.0
 11
-148.314527
 21
226.40523
 31
0.0
  0
LINE
  8
0
  6
DASHED
 62
    80
  5
21A
 10
-164.721106
 20
225.40523
 30
0.0
 11
-148.314527
 21
225.40523
 31
0.0
  0
LINE
  8
0
  6
DASHED
 62
    80
  5
21B
 10
-165.158397
 20
193.15523
 30
0.0
 11
-148.314527
 21
193.15523
 31
0.0
  0
LINE
  8
0
  6
DASHED
 62
    80
  5
21C
 10
-164.721106
 20
194.15523
 30
0.0
 11
-148.314527
 21
194.15523
 31
0.0
  0
LINE
  8
0
  6
DASHED
 62
    80
  5
21D
 10
-168.610612
 20
232.53023
 30
0.0
 11
-148.314527
 21
232.53023
 31
0.0
  0
LINE
  8
0
  6
DASHED
 62
    80
  5
21E
 10
-168.610612
 20
187.03023
 30
0.0
 11
-148.314527
 21
187.03023
 31
0.0
  0
LINE
  8
0
  6
CENTER
 62
    80
  5
21F
 10
-201.814527
 20
324.847523
 30
0.0
 11
-201.814527
 21
-296.118176
 31
0.0
  0
LINE
  8
0
  6
CENTER
 62
    80
  5
220
 10
-307.068086
 20
209.78023
 30
0.0
 11
-93.25041
 21
209.78023
 31
0.0
  0
LINE
  8
0
  6
CENTER
 62
    80
  5
221
 10
-137.94465
 20
145.910352
 30
0.0
 11
-110.479451
 21
118.445154
 31
0.0
  0
LINE
  8
0
  6
CENTER
 62
    80
  5
222
 10
-265.684405
 20
145.910352
 30
0.0
 11
-293.149603
 21
118.445154
 31
0.0
  0
ARC
  8
0
  6
CENTER
 62
    80
  5
223
 10
-201.814527
 20
209.78023
 30
0.0
 40
106.75
 50
36.774124
 51
53.637808
  0
ARC
  8
0
  6
CENTER
 62
    80
  5
224
 10
-201.814527
 20
209.78023
 30
0.0
 40
106.75
 50
305.855016
 51
323.572835
  0
ARC
  8
0
  6
CENTER
 62
    80
  5
225
 10
-201.814527
 20
209.78023
 30
0.0
 40
106.75
 50
216.612963
 51
233.840563
  0
ARC
  8
0
  6
CENTER
 62
    80
  5
226
 10
-201.814527
 20
209.78023
 30
0.0
 40
106.75
 50
126.271547
 51
143.240598
  0
LINE
  8
0
  6
CENTER
 62
    80
  5
227
 10
-266.608105
 20
274.573808
 30
0.0
 11
-140.259123
 21
148.224826
 31
0.0
  0
LINE
  8
0
  6
CENTER
 62
    80
  5
228
 10
-290.324201
 20
186.064135
 30
0.0
 11
-117.728281
 21
232.311072
 31
0.0
  0
LINE
  8
0
  6
CENTER
 62
    80
  5
229
 10
-225.530623
 20
121.270557
 30
0.0
 11
-179.283686
 21
293.866476
 31
0.0
  0
ARC
  8
0
  6
CENTER
 62
    80
  5
22A
 10
-201.814527
 20
209.78023
 30
0.0
 40
89.25
 50
81.774124
 51
98.637808
  0
ARC
  8
0
  6
CENTER
 62
    80
  5
22B
 10
-201.814527
 20
209.78023
 30
0.0
 40
89.25
 50
171.774124
 51
188.637808
  0
ARC
  8
0
  6
CENTER
 62
    80
  5
22C
 10
-201.814527
 20
209.78023
 30
0.0
 40
89.25
 50
261.774124
 51
278.637808
  0
ARC
  8
0
  6
CENTER
 62
    80
  5
22D
 10
-201.814527
 20
209.78023
 30
0.0
 40
89.25
 50
351.774124
 51
8.637808
  0
POLYLINE
  8
0
  6
CONTINUOUS
 62
    80
  5
234
 66
     1
 10
0.0
 20
0.0
 30
0.0
  0
VERTEX
  8
0
  6
CONTINUOUS
 62
    80
  5
4A6
 10
-243.634819
 20
-4.420443
 30
0.0
  0
VERTEX
  8
0
  6
CONTINUOUS
 62
    80
  5
4A7
 10
-277.069226
 20
23.640578
 30
0.0
  0
VERTEX
  8
0
  6
CONTINUOUS
 62
    80
  5
4A8
 10
-299.218957
 20
23.640578
 30
0.0
  0
SEQEND
  8
0
  6
CONTINUOUS
 62
    80
  5
4A9
  0
INSERT
  8
0
  6
CONTINUOUS
 62
    80
  5
235
  2
_OPEN30
 10
-243.634819
 20
-4.420443
 30
0.0
 41
2.77
 42
2.77
 50
319.993744
 43
2.77
  0
TEXT
  8
0
  6
CONTINUOUS
 62
     3
  5
236
 10
-298.80229
 20
25.440578
 30
0.0
 40
3.2
  1
グローブ
 41
0.78125
  7
MX_NOTE_STANDARD
 11
-298.80229
 21
27.040578
 31
0.0
 73
     2
  0
CIRCLE
  8
0
  6
DASHED
 62
    80
  5
237
 10
-201.814527
 20
-64.982482
 30
0.0
 40
43.75
  0
ARC
  8
0
  6
DASHED
 62
    80
  5
238
 10
-201.814527
 20
-64.982482
 30
0.0
 40
52.5
 50
3.0
 51
177.0
  0
LINE
  8
0
  6
DASHED
 62
    80
  5
239
 10
-254.242578
 20
-62.234845
 30
0.0
 11
-256.798418
 21
-111.003182
 31
0.0
  0
LINE
  8
0
  6
DASHED
 62
    80
  5
23A
 10
-262.189527
 20
-111.474843
 30
0.0
 11
-262.189527
 21
-161.232482
 31
0.0
  0
LINE
  8
0
  6
DASHED
 62
    80
  5
23B
 10
-145.806898
 20
-164.232482
 30
0.0
 11
-259.189527
 21
-164.232482
 31
0.0
  0
ARC
  8
0
  6
DASHED
 62
    80
  5
23C
 10
-259.189527
 20
-161.232482
 30
0.0
 40
3.0
 50
180.0
 51
270.0
  0
LINE
  8
0
  6
DASHED
 62
    80
  5
23D
 10
-262.189527
 20
-111.474843
 30
0.0
 11
-256.798418
 21
-111.003182
 31
0.0
  0
LINE
  8
0
  6
DASHED
 62
    80
  5
23E
 10
-149.386477
 20
-62.234845
 30
0.0
 11
-146.830636
 21
-111.003182
 31
0.0
  0
LINE
  8
0
  6
DASHED
 62
    80
  5
23F
 10
-141.439527
 20
-111.474843
 30
0.0
 11
-146.830636
 21
-111.003182
 31
0.0
  0
LINE
  8
0
  6
DASHED
 62
    80
  5
240
 10
-141.439527
 20
-111.474843
 30
0.0
 11
-141.439527
 21
-161.232482
 31
0.0
  0
ARC
  8
0
  6
DASHED
 62
    80
  5
241
 10
-144.439527
 20
-161.232482
 30
0.0
 40
3.0
 50
270.0
 51
0.0
  0
POLYLINE
  8
0
  6
CONTINUOUS
 62
    80
  5
242
 66
     1
 10
0.0
 20
0.0
 30
0.0
  0
VERTEX
  8
0
  6
CONTINUOUS
 62
    80
  5
4AA
 10
-254.242578
 20
-62.234845
 30
0.0
  0
VERTEX
  8
0
  6
CONTINUOUS
 62
    80
  5
4AB
 10
-295.562102
 20
-26.959299
 30
0.0
  0
VERTEX
  8
0
  6
CONTINUOUS
 62
    80
  5
4AC
 10
-318.100116
 20
-26.959299
 30
0.0
  0
SEQEND
  8
0
  6
CONTINUOUS
 62
    80
  5
4AD
  0
INSERT
  8
0
  6
CONTINUOUS
 62
    80
  5
243
  2
_OPEN30
 10
-254.242578
 20
-62.234845
 30
0.0
 41
2.77
 42
2.77
 50
319.511757
 43
2.77
  0
TEXT
  8
0
  6
CONTINUOUS
 62
     3
  5
244
 10
-317.683449
 20
-25.159299
 30
0.0
 40
3.2
  1
回転灯ユニット
 41
0.78125
  7
MX_NOTE_STANDARD
 11
-317.683449
 21
-23.559299
 31
0.0
 73
     2
  0
POLYLINE
  8
0
  6
CONTINUOUS
 62
    80
  5
245
 66
     1
 10
0.0
 20
0.0
 30
0.0
  0
VERTEX
  8
0
  6
CONTINUOUS
 62
    80
  5
4AE
 10
-280.950972
 20
-154.22993
 30
0.0
  0
VERTEX
  8
0
  6
CONTINUOUS
 62
    80
  5
4AF
 10
-314.402769
 20
-93.862893
 30
0.0
  0
VERTEX
  8
0
  6
CONTINUOUS
 62
    80
  5
4B0
 10
-387.940783
 20
-93.862893
 30
0.0
  0
SEQEND
  8
0
  6
CONTINUOUS
 62
    80
  5
4B1
  0
INSERT
  8
0
  6
CONTINUOUS
 62
    80
  5
246
  2
_OPEN30
 10
-280.950972
 20
-154.22993
 30
0.0
 41
2.77
 42
2.77
 50
298.992596
 43
2.77
  0
TEXT
  8
0
  6
CONTINUOUS
 62
     3
  5
247
 10
-387.512212
 20
-92.062893
 30
0.0
 40
3.2
  1
4-M8（ランプ保護カバー取付用）六角穴付ボルト
 41
0.803571
  7
MX_NOTE_STANDARD
 11
-387.512212
 21
-90.462893
 31
0.0
 73
     2
  0
POLYLINE
  8
0
  6
CONTINUOUS
 62
    80
  5
248
 66
     1
 10
0.0
 20
0.0
 30
0.0
  0
VERTEX
  8
0
  6
CONTINUOUS
 62
    80
  5
4B2
 10
-258.527565
 20
-285.894828
 30
0.0
  0
VERTEX
  8
0
  6
CONTINUOUS
 62
    80
  5
4B3
 10
-280.271484
 20
-263.244911
 30
0.0
  0
VERTEX
  8
0
  6
CONTINUOUS
 62
    80
  5
4B4
 10
-305.47948
 20
-263.244911
 30
0.0
  0
SEQEND
  8
0
  6
CONTINUOUS
 62
    80
  5
4B5
  0
INSERT
  8
0
  6
CONTINUOUS
 62
    80
  5
249
  2
_OPEN30
 10
-258.527565
 20
-285.894828
 30
0.0
 41
2.77
 42
2.77
 50
313.830861
 43
2.77
  0
TEXT
  8
0
  6
CONTINUOUS
 62
     3
  5
24A
 10
-305.044697
 20
-261.444911
 30
0.0
 40
3.2
  1
M6外部接地端子
 41
0.815217
  7
MX_NOTE_STANDARD
 11
-305.044697
 21
-259.844911
 31
0.0
 73
     2
  0
POLYLINE
  8
0
  6
CONTINUOUS
 62
    80
  5
24B
 66
     1
 10
0.0
 20
0.0
 30
0.0
  0
VERTEX
  8
0
  6
CONTINUOUS
 62
    80
  5
4B6
 10
-207.489754
 20
-265.358904
 30
0.0
  0
VERTEX
  8
0
  6
CONTINUOUS
 62
    80
  5
4B7
 10
-252.648624
 20
-325.764364
 30
0.0
  0
VERTEX
  8
0
  6
CONTINUOUS
 62
    80
  5
4B8
 10
-280.984774
 20
-325.764364
 30
0.0
  0
SEQEND
  8
0
  6
CONTINUOUS
 62
    80
  5
4B9
  0
INSERT
  8
0
  6
CONTINUOUS
 62
    80
  5
24C
  2
_OPEN30
 10
-207.489754
 20
-265.358904
 30
0.0
 41
2.77
 42
2.77
 50
53.218363
 43
2.77
  0
TEXT
  8
0
  6
CONTINUOUS
 62
     3
  5
24D
 10
-280.549991
 20
-323.964364
 30
0.0
 40
3.2
  1
M6内部接地端子
 41
0.815217
  7
MX_NOTE_STANDARD
 11
-280.549991
 21
-322.364364
 31
0.0
 73
     2
  0
DIMENSION
  8
0
  6
CONTINUOUS
 62
     7
  5
25A
  2
*D6
 10
-84.763881
 20
-169.482482
 30
0.0
 11
-84.763881
 21
-75.332484
 31
0.0
 70
   128
  1
185
 13
-163.564525
 23
18.817518
 33
0.0
 14
-101.814526
 24
-169.482482
 34
0.0
 50
90.0
  3
MXDIMSTYLE
1001
ACAD
1000
DSTYLE
1002
{
1070
     6
1000
_OPEN
1070
     7
1000
_OPEN
1070
    41
1040
3.0
1070
   173
1070
     1
1070
   271
1070
     2
1070
   340
1005
1F8
1070
   341
1005
1F0
1002
}
  0
DIMENSION
  8
0
  6
CONTINUOUS
 62
     7
  5
267
  2
*D7
 10
-84.686355
 20
-299.482482
 30
0.0
 11
-84.686355
 21
-234.482482
 31
0.0
 70
   128
  1
<>
 13
-101.814527
 23
-169.482482
 33
0.0
 14
-144.314529
 24
-299.482482
 34
0.0
 50
90.0
  3
MXDIMSTYLE
1001
ACAD
1000
DSTYLE
1002
{
1070
     6
1000
_OPEN
1070
     7
1000
_OPEN
1070
    41
1040
3.0
1070
   173
1070
     1
1070
   271
1070
     2
1070
   284
1070
     8
1070
   340
1005
212
1070
   341
1005
1F0
1002
}
  0
DIMENSION
  8
0
  6
CONTINUOUS
 62
     7
  5
274
  2
*D8
 10
-113.42557
 20
-299.482482
 30
0.0
 11
-113.42557
 21
-271.982482
 31
0.0
 70
   128
  1
<>
 13
-148.119757
 23
-244.482482
 33
0.0
 14
-144.314528
 24
-299.482482
 34
0.0
 50
90.0
  3
MXDIMSTYLE
1001
ACAD
1000
DSTYLE
1002
{
1070
     6
1000
_OPEN
1070
     7
1000
_OPEN
1070
    41
1040
3.0
1070
    75
1070
     1
1070
   173
1070
     1
1070
   271
1070
     2
1070
   284
1070
     8
1070
   340
1005
26E
1070
   341
1005
1F0
1002
}
  0
DIMENSION
  8
0
  6
CONTINUOUS
 62
     7
  5
281
  2
*D9
 10
-64.315403
 20
-299.482482
 30
0.0
 11
-64.315403
 21
-140.332476
 31
0.0
 70
   128
  1
315
 13
-163.564525
 23
18.817518
 33
0.0
 14
-144.314525
 24
-299.482482
 34
0.0
 50
90.0
  3
MXDIMSTYLE
1001
ACAD
1000
DSTYLE
1002
{
1070
     6
1000
_OPEN
1070
     7
1000
_OPEN
1070
    41
1040
3.0
1070
   173
1070
     1
1070
   271
1070
     2
1070
   340
1005
1F8
1070
   341
1005
1F0
1002
}
  0
DIMENSION
  8
0
  6
CONTINUOUS
 62
     7
  5
28F
  2
*D10
 10
-246.814527
 20
-306.582437
 30
0.0
 11
-202.216329
 21
-306.582437
 31
0.0
 70
   128
  1
<>
 13
-156.814527
 23
-310.693188
 33
0.0
 14
-246.814527
 24
-304.01476
 34
0.0
  3
MXDIMSTYLE
1001
ACAD
1000
DSTYLE
1002
{
1070
     6
1000
_OPEN
1070
     7
1000
_OPEN
1070
    41
1040
3.0
1070
   173
1070
     1
1070
   271
1070
     2
1070
   284
1070
     8
1070
   340
1005
289
1070
   341
1005
1F0
1002
}
  0
DIMENSION
  8
0
  6
CONTINUOUS
 62
     7
  5
29C
  2
*D11
 10
-259.314527
 20
-313.558611
 30
0.0
 11
-201.814527
 21
-313.558611
 31
0.0
 70
   128
  1
<>
 13
-144.314527
 23
-299.482483
 33
0.0
 14
-259.314527
 24
-299.482483
 34
0.0
  3
MXDIMSTYLE
1001
ACAD
1000
DSTYLE
1002
{
1070
     6
1000
_OPEN
1070
     7
1000
_OPEN
1070
    41
1040
3.0
1070
   173
1070
     1
1070
   271
1070
     2
1070
   284
1070
     8
1070
   340
1005
205
1070
   341
1005
1F0
1002
}
  0
POLYLINE
  8
0
  6
CONTINUOUS
 62
    80
  5
29D
 66
     1
 10
0.0
 20
0.0
 30
0.0
  0
VERTEX
  8
0
  6
CONTINUOUS
 62
    80
  5
4BA
 10
-148.309528
 20
-233.966806
 30
0.0
  0
VERTEX
  8
0
  6
CONTINUOUS
 62
    80
  5
4BB
 10
-131.50329
 20
-221.917051
 30
0.0
  0
VERTEX
  8
0
  6
CONTINUOUS
 62
    80
  5
4BC
 10
-123.429709
 20
-221.917051
 30
0.0
  0
SEQEND
  8
0
  6
CONTINUOUS
 62
    80
  5
4BD
  0
INSERT
  8
0
  6
CONTINUOUS
 62
    80
  5
29E
  2
_OPEN30
 10
-148.309528
 20
-233.966806
 30
0.0
 41
2.77
 42
2.77
 50
215.639809
 43
2.77
  0
TEXT
  8
0
  6
CONTINUOUS
 62
     3
  5
29F
 10
-125.869704
 20
-220.117051
 30
0.0
 40
3.2
  1
A
 41
1.05001
  7
MX_NOTE_STANDARD
 11
-125.869704
 21
-218.517051
 31
0.0
 73
     2
  0
POLYLINE
  8
0
  6
CONTINUOUS
 62
    80
  5
2A0
 66
     1
 10
0.0
 20
0.0
 30
0.0
  0
VERTEX
  8
0
  6
CONTINUOUS
 62
    80
  5
4BE
 10
-147.564527
 20
-244.482482
 30
0.0
  0
VERTEX
  8
0
  6
CONTINUOUS
 62
    80
  5
4BF
 10
-132.771685
 20
-313.558611
 30
0.0
  0
VERTEX
  8
0
  6
CONTINUOUS
 62
    80
  5
4C0
 10
-74.332302
 20
-313.558611
 30
0.0
  0
SEQEND
  8
0
  6
CONTINUOUS
 62
    80
  5
4C1
  0
INSERT
  8
0
  6
CONTINUOUS
 62
    80
  5
2A1
  2
_OPEN30
 10
-147.564527
 20
-244.482482
 30
0.0
 41
2.77
 42
2.77
 50
102.087472
 43
2.77
  0
TEXT
  8
0
  6
CONTINUOUS
 62
     3
  5
2A2
 10
-127.876221
 20
-311.758611
 30
0.0
 40
3.2
  1
保護管接合用ねじ穴PF1/2(標準）
 41
0.855152
  7
MX_NOTE_STANDARD
 11
-127.876221
 21
-310.158611
 31
0.0
 73
     2
  0
POLYLINE
  8
0
  6
CONTINUOUS
 62
    80
  5
2A3
 66
     1
 10
0.0
 20
0.0
 30
0.0
  0
VERTEX
  8
0
  6
CONTINUOUS
 62
    80
  5
4C2
 10
68.435473
 20
-244.482482
 30
0.0
  0
VERTEX
  8
0
  6
CONTINUOUS
 62
    80
  5
4C3
 10
42.526311
 20
-282.532345
 30
0.0
  0
VERTEX
  8
0
  6
CONTINUOUS
 62
    80
  5
4C4
 10
-21.187629
 20
-282.532345
 30
0.0
  0
SEQEND
  8
0
  6
CONTINUOUS
 62
    80
  5
4C5
  0
INSERT
  8
0
  6
CONTINUOUS
 62
    80
  5
2A4
  2
_OPEN30
 10
68.435473
 20
-244.482482
 30
0.0
 41
2.77
 42
2.77
 50
55.748012
 43
2.77
  0
TEXT
  8
0
  6
CONTINUOUS
 62
     3
  5
2A5
 10
-20.747685
 20
-280.732344
 30
0.0
 40
3.2
  1
2-M8(端子カバー取付用）六角穴付ボルト
 41
0.824895
  7
MX_NOTE_STANDARD
 11
-20.747685
 21
-279.132344
 31
0.0
 73
     2
  0
LINE
  8
0
  6
CENTER
 62
    80
  5
2A6
 10
193.185473
 20
-278.985917
 30
0.0
 11
193.185473
 21
-310.693188
 31
0.0
  0
ENDBLK
  8
0
  5
2A7
  0
BLOCK
  8
0
  6
BYBLOCK
 62
     0
  5
1EC
  2
*D1
 70
     1
 10
0.0
 20
0.0
 30
0.0
  3
*D1
  0
LINE
  8
0
  6
CONTINUOUS
 62
     7
  5
1ED
 10
-57.348264
 20
309.78023
 30
0.0
 11
-57.348264
 21
109.78023
 31
0.0
  0
LINE
  8
0
  6
CONTINUOUS
 62
     7
  5
1EE
 10
-201.314527
 20
309.78023
 30
0.0
 11
-56.348264
 21
309.78023
 31
0.0
  0
LINE
  8
0
  6
CONTINUOUS
 62
     7
  5
1EF
 10
-201.314527
 20
109.78023
 30
0.0
 11
-56.348264
 21
109.78023
 31
0.0
  0
INSERT
  8
0
  6
CONTINUOUS
 62
     7
  5
1F6
  2
_OPEN
 10
-57.348264
 20
309.78023
 30
0.0
 41
3.0
 42
3.0
 50
90.0
 43
3.0
  0
INSERT
  8
0
  6
CONTINUOUS
 62
     7
  5
1F7
  2
_OPEN
 10
-57.348264
 20
109.78023
 30
0.0
 41
3.0
 42
3.0
 50
270.0
 43
3.0
  0
TEXT
  8
0
  6
CONTINUOUS
 62
   255
  5
1F9
 10
-58.348264
 20
206.681272
 30
0.0
 40
2.5
  1
200
 50
90.0
  7
MX_DIMTXSTY_1
 11
-59.598264
 21
206.681272
 31
0.0
 73
     2
  0
POINT
  8
DEFPOINTS
  6
CONTINUOUS
 62
     0
  5
1FA
 10
-201.814527
 20
309.78023
 30
0.0
  0
POINT
  8
DEFPOINTS
  6
CONTINUOUS
 62
     0
  5
1FB
 10
-201.814527
 20
109.78023
 30
0.0
  0
POINT
  8
DEFPOINTS
  6
CONTINUOUS
 62
     0
  5
1FC
 10
-57.348264
 20
109.78023
 30
0.0
  0
ENDBLK
  8
0
  6
BYBLOCK
 62
     0
  5
1FD
  0
BLOCK
  8
0
  6
BYBLOCK
 62
     0
  5
1F1
  2
_OPEN
 70
     2
 10
0.0
 20
0.0
 30
0.0
  3
_OPEN
  0
LINE
  8
0
  6
BYBLOCK
 62
     0
  5
1F2
 10
-1.0
 20
0.166667
 30
0.0
 11
0.0
 21
0.0
 31
0.0
  0
LINE
  8
0
  6
BYBLOCK
 62
     0
  5
1F3
 10
0.0
 20
0.0
 30
0.0
 11
-1.0
 21
-0.166667
 31
0.0
  0
LINE
  8
0
  6
BYBLOCK
 62
     0
  5
1F4
 10
0.0
 20
0.0
 30
0.0
 11
-1.0
 21
0.0
 31
0.0
  0
ENDBLK
  8
0
  6
BYBLOCK
 62
     0
  5
1F5
  0
BLOCK
  8
0
  6
BYBLOCK
 62
     0
  5
200
  2
*D3
 70
     1
 10
0.0
 20
0.0
 30
0.0
  3
*D3
  0
LINE
  8
0
  6
CONTINUOUS
 62
     7
  5
201
 10
-201.814527
 20
92.356556
 30
0.0
 11
-301.814527
 21
92.356556
 31
0.0
  0
LINE
  8
0
  6
CONTINUOUS
 62
     7
  5
202
 10
-301.814527
 20
209.280231
 30
0.0
 11
-301.814527
 21
91.356556
 31
0.0
  0
INSERT
  8
0
  6
CONTINUOUS
 62
     7
  5
203
  2
_OPEN
 10
-201.814527
 20
92.356556
 30
0.0
 41
3.0
 42
3.0
 43
3.0
  0
INSERT
  8
0
  6
CONTINUOUS
 62
     7
  5
204
  2
_OPEN
 10
-301.814527
 20
92.356556
 30
0.0
 41
3.0
 42
3.0
 50
180.0
 43
3.0
  0
TEXT
  8
0
  6
CONTINUOUS
 62
   255
  5
206
 10
-254.913486
 20
93.356556
 30
0.0
 40
2.5
  1
100
  7
MX_DIMTXSTY_2
 11
-254.913486
 21
94.606556
 31
0.0
 73
     2
  0
POINT
  8
DEFPOINTS
  6
CONTINUOUS
 62
     0
  5
207
 10
-201.814527
 20
92.356556
 30
0.0
  0
POINT
  8
DEFPOINTS
  6
CONTINUOUS
 62
     0
  5
208
 10
-301.814527
 20
209.780231
 30
0.0
  0
POINT
  8
DEFPOINTS
  6
CONTINUOUS
 62
     0
  5
209
 10
-301.814527
 20
92.356556
 30
0.0
  0
ENDBLK
  8
0
  6
BYBLOCK
 62
     0
  5
20A
  0
BLOCK
  8
0
  6
BYBLOCK
 62
     0
  5
20D
  2
*D4
 70
     1
 10
0.0
 20
0.0
 30
0.0
  3
*D4
  0
LINE
  8
0
  6
CONTINUOUS
 62
     7
  5
20E
 10
-201.814527
 20
92.356556
 30
0.0
 11
-148.314527
 21
92.356556
 31
0.0
  0
LINE
  8
0
  6
CONTINUOUS
 62
     7
  5
20F
 10
-148.314527
 20
186.53023
 30
0.0
 11
-148.314527
 21
91.356556
 31
0.0
  0
INSERT
  8
0
  6
CONTINUOUS
 62
     7
  5
210
  2
_OPEN
 10
-201.814527
 20
92.356556
 30
0.0
 41
3.0
 42
3.0
 50
180.0
 43
3.0
  0
INSERT
  8
0
  6
CONTINUOUS
 62
     7
  5
211
  2
_OPEN
 10
-148.314527
 20
92.356556
 30
0.0
 41
3.0
 42
3.0
 43
3.0
  0
TEXT
  8
0
  6
CONTINUOUS
 62
   255
  5
213
 10
-179.335361
 20
93.356556
 30
0.0
 40
2.5
  1
53.5
  7
MX_DIMTXSTY_3
 11
-179.335361
 21
94.606556
 31
0.0
 73
     2
  0
POINT
  8
DEFPOINTS
  6
CONTINUOUS
 62
     0
  5
214
 10
-201.814527
 20
80.57027
 30
0.0
  0
POINT
  8
DEFPOINTS
  6
CONTINUOUS
 62
     0
  5
215
 10
-148.314527
 20
187.03023
 30
0.0
  0
POINT
  8
DEFPOINTS
  6
CONTINUOUS
 62
     0
  5
216
 10
-148.314527
 20
92.356556
 30
0.0
  0
ENDBLK
  8
0
  6
BYBLOCK
 62
     0
  5
217
  0
BLOCK
  8
0
  6
BYBLOCK
 62
     0
  5
22F
  2
_OPEN30
 70
     2
 10
0.0
 20
0.0
 30
0.0
  3
_OPEN30
  0
LINE
  8
0
  6
BYBLOCK
 62
     0
  5
230
 10
-1.0
 20
0.267949
 30
0.0
 11
0.0
 21
0.0
 31
0.0
  0
LINE
  8
0
  6
BYBLOCK
 62
     0
  5
231
 10
0.0
 20
0.0
 30
0.0
 11
-1.0
 21
-0.267949
 31
0.0
  0
LINE
  8
0
  6
BYBLOCK
 62
     0
  5
232
 10
0.0
 20
0.0
 30
0.0
 11
-1.0
 21
0.0
 31
0.0
  0
ENDBLK
  8
0
  6
BYBLOCK
 62
     0
  5
233
  0
BLOCK
  8
0
  6
BYBLOCK
 62
     0
  5
24F
  2
*D6
 70
     1
 10
0.0
 20
0.0
 30
0.0
  3
*D6
  0
LINE
  8
0
  6
CONTINUOUS
 62
     7
  5
250
 10
-84.763881
 20
18.817518
 30
0.0
 11
-84.763881
 21
-169.482482
 31
0.0
  0
LINE
  8
0
  6
CONTINUOUS
 62
     7
  5
251
 10
-163.064525
 20
18.817518
 30
0.0
 11
-83.763881
 21
18.817518
 31
0.0
  0
LINE
  8
0
  6
CONTINUOUS
 62
     7
  5
252
 10
-101.314526
 20
-169.482482
 30
0.0
 11
-83.763881
 21
-169.482482
 31
0.0
  0
INSERT
  8
0
  6
CONTINUOUS
 62
     7
  5
253
  2
_OPEN
 10
-84.763881
 20
18.817518
 30
0.0
 41
3.0
 42
3.0
 50
90.0
 43
3.0
  0
INSERT
  8
0
  6
CONTINUOUS
 62
     7
  5
254
  2
_OPEN
 10
-84.763881
 20
-169.482482
 30
0.0
 41
3.0
 42
3.0
 50
270.0
 43
3.0
  0
TEXT
  8
0
  6
CONTINUOUS
 62
   255
  5
255
 10
-85.763881
 20
-78.431442
 30
0.0
 40
2.5
  1
185
 50
90.0
  7
MX_DIMTXSTY_1
 11
-87.013881
 21
-78.431442
 31
0.0
 73
     2
  0
POINT
  8
DEFPOINTS
  6
CONTINUOUS
 62
     0
  5
256
 10
-163.564525
 20
18.817518
 30
0.0
  0
POINT
  8
DEFPOINTS
  6
CONTINUOUS
 62
     0
  5
257
 10
-101.814526
 20
-169.482482
 30
0.0
  0
POINT
  8
DEFPOINTS
  6
CONTINUOUS
 62
     0
  5
258
 10
-84.763881
 20
-169.482482
 30
0.0
  0
ENDBLK
  8
0
  6
BYBLOCK
 62
     0
  5
259
  0
BLOCK
  8
0
  6
BYBLOCK
 62
     0
  5
25C
  2
*D7
 70
     1
 10
0.0
 20
0.0
 30
0.0
  3
*D7
  0
LINE
  8
0
  6
CONTINUOUS
 62
     7
  5
25D
 10
-84.686355
 20
-169.482482
 30
0.0
 11
-84.686355
 21
-299.482482
 31
0.0
  0
LINE
  8
0
  6
CONTINUOUS
 62
     7
  5
25E
 10
-101.314527
 20
-169.482482
 30
0.0
 11
-83.686355
 21
-169.482482
 31
0.0
  0
LINE
  8
0
  6
CONTINUOUS
 62
     7
  5
25F
 10
-143.814529
 20
-299.482482
 30
0.0
 11
-83.686355
 21
-299.482482
 31
0.0
  0
INSERT
  8
0
  6
CONTINUOUS
 62
     7
  5
260
  2
_OPEN
 10
-84.686355
 20
-169.482482
 30
0.0
 41
3.0
 42
3.0
 50
90.0
 43
3.0
  0
INSERT
  8
0
  6
CONTINUOUS
 62
     7
  5
261
  2
_OPEN
 10
-84.686355
 20
-299.482482
 30
0.0
 41
3.0
 42
3.0
 50
270.0
 43
3.0
  0
TEXT
  8
0
  6
CONTINUOUS
 62
   255
  5
262
 10
-85.686355
 20
-237.581441
 30
0.0
 40
2.5
  1
130
 50
90.0
  7
MX_DIMTXSTY_3
 11
-86.936355
 21
-237.581441
 31
0.0
 73
     2
  0
POINT
  8
DEFPOINTS
  6
CONTINUOUS
 62
     0
  5
263
 10
-101.814527
 20
-169.482482
 30
0.0
  0
POINT
  8
DEFPOINTS
  6
CONTINUOUS
 62
     0
  5
264
 10
-144.314529
 20
-299.482482
 30
0.0
  0
POINT
  8
DEFPOINTS
  6
CONTINUOUS
 62
     0
  5
265
 10
-84.686355
 20
-299.482482
 30
0.0
  0
ENDBLK
  8
0
  6
BYBLOCK
 62
     0
  5
266
  0
BLOCK
  8
0
  6
BYBLOCK
 62
     0
  5
269
  2
*D8
 70
     1
 10
0.0
 20
0.0
 30
0.0
  3
*D8
  0
LINE
  8
0
  6
CONTINUOUS
 62
     7
  5
26A
 10
-113.42557
 20
-244.482482
 30
0.0
 11
-113.42557
 21
-299.482482
 31
0.0
  0
LINE
  8
0
  6
CONTINUOUS
 62
     7
  5
26B
 10
-143.814528
 20
-299.482482
 30
0.0
 11
-112.42557
 21
-299.482482
 31
0.0
  0
INSERT
  8
0
  6
CONTINUOUS
 62
     7
  5
26C
  2
_OPEN
 10
-113.42557
 20
-244.482482
 30
0.0
 41
3.0
 42
3.0
 50
90.0
 43
3.0
  0
INSERT
  8
0
  6
CONTINUOUS
 62
     7
  5
26D
  2
_OPEN
 10
-113.42557
 20
-299.482482
 30
0.0
 41
3.0
 42
3.0
 50
270.0
 43
3.0
  0
TEXT
  8
0
  6
CONTINUOUS
 62
   255
  5
26F
 10
-114.42557
 20
-273.909566
 30
0.0
 40
2.5
  1
55
 50
90.0
  7
MX_DIMTXSTY_4
 11
-115.67557
 21
-273.909566
 31
0.0
 73
     2
  0
POINT
  8
DEFPOINTS
  6
CONTINUOUS
 62
     0
  5
270
 10
-148.119757
 20
-244.482482
 30
0.0
  0
POINT
  8
DEFPOINTS
  6
CONTINUOUS
 62
     0
  5
271
 10
-144.314528
 20
-299.482482
 30
0.0
  0
POINT
  8
DEFPOINTS
  6
CONTINUOUS
 62
     0
  5
272
 10
-113.42557
 20
-299.482482
 30
0.0
  0
ENDBLK
  8
0
  6
BYBLOCK
 62
     0
  5
273
  0
BLOCK
  8
0
  6
BYBLOCK
 62
     0
  5
276
  2
*D9
 70
     1
 10
0.0
 20
0.0
 30
0.0
  3
*D9
  0
LINE
  8
0
  6
CONTINUOUS
 62
     7
  5
277
 10
-64.315403
 20
18.817518
 30
0.0
 11
-64.315403
 21
-299.482482
 31
0.0
  0
LINE
  8
0
  6
CONTINUOUS
 62
     7
  5
278
 10
-163.064525
 20
18.817518
 30
0.0
 11
-63.315403
 21
18.817518
 31
0.0
  0
LINE
  8
0
  6
CONTINUOUS
 62
     7
  5
279
 10
-143.814525
 20
-299.482482
 30
0.0
 11
-63.315403
 21
-299.482482
 31
0.0
  0
INSERT
  8
0
  6
CONTINUOUS
 62
     7
  5
27A
  2
_OPEN
 10
-64.315403
 20
18.817518
 30
0.0
 41
3.0
 42
3.0
 50
90.0
 43
3.0
  0
INSERT
  8
0
  6
CONTINUOUS
 62
     7
  5
27B
  2
_OPEN
 10
-64.315403
 20
-299.482482
 30
0.0
 41
3.0
 42
3.0
 50
270.0
 43
3.0
  0
TEXT
  8
0
  6
CONTINUOUS
 62
   255
  5
27C
 10
-65.315403
 20
-143.431435
 30
0.0
 40
2.5
  1
315
 50
90.0
  7
MX_DIMTXSTY_1
 11
-66.565403
 21
-143.431435
 31
0.0
 73
     2
  0
POINT
  8
DEFPOINTS
  6
CONTINUOUS
 62
     0
  5
27D
 10
-163.564525
 20
18.817518
 30
0.0
  0
POINT
  8
DEFPOINTS
  6
CONTINUOUS
 62
     0
  5
27E
 10
-144.314525
 20
-299.482482
 30
0.0
  0
POINT
  8
DEFPOINTS
  6
CONTINUOUS
 62
     0
  5
27F
 10
-64.315403
 20
-299.482482
 30
0.0
  0
ENDBLK
  8
0
  6
BYBLOCK
 62
     0
  5
280
  0
BLOCK
  8
0
  6
BYBLOCK
 62
     0
  5
283
  2
*D10
 70
     1
 10
0.0
 20
0.0
 30
0.0
  3
*D10
  0
LINE
  8
0
  6
CONTINUOUS
 62
     7
  5
284
 10
-156.814527
 20
-306.582437
 30
0.0
 11
-246.814527
 21
-306.582437
 31
0.0
  0
LINE
  8
0
  6
CONTINUOUS
 62
     7
  5
285
 10
-156.814527
 20
-310.193188
 30
0.0
 11
-156.814527
 21
-305.582437
 31
0.0
  0
LINE
  8
0
  6
CONTINUOUS
 62
     7
  5
286
 10
-246.814527
 20
-304.51476
 30
0.0
 11
-246.814527
 21
-307.582437
 31
0.0
  0
INSERT
  8
0
  6
CONTINUOUS
 62
     7
  5
287
  2
_OPEN
 10
-156.814527
 20
-306.582437
 30
0.0
 41
3.0
 42
3.0
 43
3.0
  0
INSERT
  8
0
  6
CONTINUOUS
 62
     7
  5
288
  2
_OPEN
 10
-246.814527
 20
-306.582437
 30
0.0
 41
3.0
 42
3.0
 50
180.0
 43
3.0
  0
TEXT
  8
0
  6
CONTINUOUS
 62
   255
  5
28A
 10
-204.143413
 20
-305.582437
 30
0.0
 40
2.5
  1
90
  7
MX_DIMTXSTY_5
 11
-204.143413
 21
-304.332437
 31
0.0
 73
     2
  0
POINT
  8
DEFPOINTS
  6
CONTINUOUS
 62
     0
  5
28B
 10
-156.814527
 20
-310.693188
 30
0.0
  0
POINT
  8
DEFPOINTS
  6
CONTINUOUS
 62
     0
  5
28C
 10
-246.814527
 20
-304.01476
 30
0.0
  0
POINT
  8
DEFPOINTS
  6
CONTINUOUS
 62
     0
  5
28D
 10
-246.814527
 20
-306.582437
 30
0.0
  0
ENDBLK
  8
0
  6
BYBLOCK
 62
     0
  5
28E
  0
BLOCK
  8
0
  6
BYBLOCK
 62
     0
  5
291
  2
*D11
 70
     1
 10
0.0
 20
0.0
 30
0.0
  3
*D11
  0
LINE
  8
0
  6
CONTINUOUS
 62
     7
  5
292
 10
-144.314527
 20
-313.558611
 30
0.0
 11
-259.314527
 21
-313.558611
 31
0.0
  0
LINE
  8
0
  6
CONTINUOUS
 62
     7
  5
293
 10
-144.314527
 20
-299.982483
 30
0.0
 11
-144.314527
 21
-314.558611
 31
0.0
  0
LINE
  8
0
  6
CONTINUOUS
 62
     7
  5
294
 10
-259.314527
 20
-299.982483
 30
0.0
 11
-259.314527
 21
-314.558611
 31
0.0
  0
INSERT
  8
0
  6
CONTINUOUS
 62
     7
  5
295
  2
_OPEN
 10
-144.314527
 20
-313.558611
 30
0.0
 41
3.0
 42
3.0
 43
3.0
  0
INSERT
  8
0
  6
CONTINUOUS
 62
     7
  5
296
  2
_OPEN
 10
-259.314527
 20
-313.558611
 30
0.0
 41
3.0
 42
3.0
 50
180.0
 43
3.0
  0
TEXT
  8
0
  6
CONTINUOUS
 62
   255
  5
297
 10
-204.913486
 20
-312.558611
 30
0.0
 40
2.5
  1
115
  7
MX_DIMTXSTY_2
 11
-204.913486
 21
-311.308611
 31
0.0
 73
     2
  0
POINT
  8
DEFPOINTS
  6
CONTINUOUS
 62
     0
  5
298
 10
-144.314527
 20
-299.482483
 30
0.0
  0
POINT
  8
DEFPOINTS
  6
CONTINUOUS
 62
     0
  5
299
 10
-259.314527
 20
-299.482483
 30
0.0
  0
POINT
  8
DEFPOINTS
  6
CONTINUOUS
 62
     0
  5
29A
 10
-259.314527
 20
-313.558611
 30
0.0
  0
ENDBLK
  8
0
  6
BYBLOCK
 62
     0
  5
29B
  0
ENDSEC
  0
SECTION
  2
ENTITIES
  0
LINE
  8
LY_1
  6
DASHED
 62
    80
  5
2A8
 10
-2.2
 20
33.125
 30
0.0
 11
-2.2
 21
25.125
 31
0.0
  0
LINE
  8
LY_1
  6
DASHED
 62
    80
  5
2A9
 10
2.2
 20
33.125
 30
0.0
 11
2.2
 21
25.125
 31
0.0
  0
LINE
  8
LY_1
  6
DASHED
 62
    80
  5
2AA
 10
3.0
 20
25.125
 30
0.0
 11
-3.0
 21
25.125
 31
0.0
  0
LINE
  8
LY_1
  6
DASHED
 62
    80
  5
2AB
 10
5.25
 20
33.125
 30
0.0
 11
-5.25
 21
33.125
 31
0.0
  0
LINE
  8
LY_1
  6
DASHED
 62
    80
  5
2AC
 10
-5.25
 20
34.335083
 30
0.0
 11
-5.25
 21
33.125
 31
0.0
  0
LINE
  8
LY_1
  6
DASHED
 62
    80
  5
2AD
 10
-3.0
 20
33.125
 30
0.0
 11
-3.0
 21
25.125
 31
0.0
  0
LINE
  8
LY_1
  6
DASHED
 62
    80
  5
2AE
 10
5.25
 20
34.335083
 30
0.0
 11
5.25
 21
33.125
 31
0.0
  0
LINE
  8
LY_1
  6
DASHED
 62
    80
  5
2AF
 10
3.0
 20
33.125
 30
0.0
 11
3.0
 21
25.125
 31
0.0
  0
ARC
  8
LY_1
  6
DASHED
 62
    80
  5
2B0
 10
0.0
 20
27.024963
 30
0.0
 40
10.0
 50
66.030522
 51
113.969488
  0
ARC
  8
LY_1
  6
DASHED
 62
    80
  5
2B1
 10
-3.25
 20
34.335083
 30
0.0
 40
2.0
 50
113.969478
 51
179.999997
  0
ARC
  8
LY_1
  6
DASHED
 62
    80
  5
2B2
 10
3.25
 20
34.335083
 30
0.0
 40
2.0
 50
0.000003
 51
66.030522
  0
ARC
  8
LY_1
  6
CONTINUOUS
 62
     3
  5
2B3
 10
-48.75
 20
11.710083
 30
0.0
 40
2.0
 50
0.000003
 51
66.030522
  0
ARC
  8
LY_1
  6
CONTINUOUS
 62
     3
  5
2B4
 10
-55.25
 20
11.710083
 30
0.0
 40
2.0
 50
113.969478
 51
179.999997
  0
ARC
  8
LY_1
  6
CONTINUOUS
 62
     3
  5
2B5
 10
-52.0
 20
4.399963
 30
0.0
 40
10.0
 50
66.030522
 51
113.969488
  0
LINE
  8
LY_1
  6
CONTINUOUS
 62
     3
  5
2B6
 10
-49.0
 20
10.5
 30
0.0
 11
-49.0
 21
2.5
 31
0.0
  0
LINE
  8
LY_1
  6
CONTINUOUS
 62
     3
  5
2B7
 10
-46.75
 20
11.710083
 30
0.0
 11
-46.75
 21
10.5
 31
0.0
  0
LINE
  8
LY_1
  6
CONTINUOUS
 62
     3
  5
2B8
 10
-55.0
 20
10.5
 30
0.0
 11
-55.0
 21
2.5
 31
0.0
  0
LINE
  8
LY_1
  6
CONTINUOUS
 62
     3
  5
2B9
 10
-57.25
 20
11.710083
 30
0.0
 11
-57.25
 21
10.5
 31
0.0
  0
LINE
  8
LY_1
  6
CONTINUOUS
 62
     3
  5
2BA
 10
-46.75
 20
10.5
 30
0.0
 11
-57.25
 21
10.5
 31
0.0
  0
LINE
  8
LY_1
  6
CONTINUOUS
 62
     3
  5
2BB
 10
-49.0
 20
2.5
 30
0.0
 11
-55.0
 21
2.5
 31
0.0
  0
LINE
  8
LY_1
  6
CENTER
 62
    80
  5
2BC
 10
-49.8
 20
10.5
 30
0.0
 11
-49.8
 21
2.5
 31
0.0
  0
LINE
  8
LY_1
  6
CENTER
 62
    80
  5
2BD
 10
-54.2
 20
10.5
 30
0.0
 11
-54.2
 21
2.5
 31
0.0
  0
LINE
  8
LY_1
  6
CONTINUOUS
 62
     3
  5
2BE
 10
-100.0
 20
130.0
 30
0.0
 11
100.0
 21
130.0
 31
0.0
  0
LINE
  8
LY_1
  6
CONTINUOUS
 62
     3
  5
2BF
 10
-78.142854
 20
249.5
 30
0.0
 11
-25.152335
 21
249.5
 31
0.0
  0
LINE
  8
LY_1
  6
CONTINUOUS
 62
     3
  5
2C0
 10
-78.260431
 20
256.0
 30
0.0
 11
-24.304289
 21
256.0
 31
0.0
  0
LINE
  8
LY_1
  6
CONTINUOUS
 62
     3
  5
2C1
 10
59.936351
 20
256.0
 30
0.0
 11
79.654862
 21
256.0
 31
0.0
  0
LINE
  8
LY_1
  6
CONTINUOUS
 62
     3
  5
2C2
 10
61.971938
 20
249.5
 30
0.0
 11
79.708118
 21
249.5
 31
0.0
  0
ARC
  8
LY_1
  6
CONTINUOUS
 62
     3
  5
2C3
 10
0.0
 20
232.8
 30
0.0
 40
75.0
 50
5.0
 51
12.865707
  0
LINE
  8
LY_1
  6
CONTINUOUS
 62
     3
  5
2C4
 10
74.714602
 20
239.336681
 30
0.0
 11
78.768536
 21
193.0
 31
0.0
  0
LINE
  8
LY_1
  6
CONTINUOUS
 62
     3
  5
2C5
 10
-74.714602
 20
239.336681
 30
0.0
 11
-78.768536
 21
193.0
 31
0.0
  0
ARC
  8
LY_1
  6
CONTINUOUS
 62
     3
  5
2C6
 10
0.0
 20
232.8
 30
0.0
 40
75.0
 50
18.019059
 51
55.161193
  0
ARC
  8
LY_1
  6
CONTINUOUS
 62
     3
  5
2C7
 10
0.0
 20
232.8
 30
0.0
 40
75.0
 50
167.134293
 51
175.0
  0
ARC
  8
LY_1
  6
CONTINUOUS
 62
     3
  5
2C8
 10
0.0
 20
232.8
 30
0.0
 40
75.0
 50
67.558512
 51
95.397992
  0
ARC
  8
LY_1
  6
CONTINUOUS
 62
     3
  5
2C9
 10
0.0
 20
232.8
 30
0.0
 40
75.0
 50
101.786636
 51
150.575171
  0
LINE
  8
LY_1
  6
CONTINUOUS
 62
     3
  5
2CA
 10
-15.123337
 20
249.5
 30
0.0
 11
50.080173
 21
249.5
 31
0.0
  0
LINE
  8
LY_1
  6
CONTINUOUS
 62
     3
  5
2CB
 10
-14.858146
 20
256.0
 30
0.0
 11
49.905808
 21
256.0
 31
0.0
  0
LINE
  8
LY_1
  6
CONTINUOUS
 62
     3
  5
2CC
 10
-100.0
 20
184.0
 30
0.0
 11
-100.0
 21
115.249928
 31
0.0
  0
LINE
  8
LY_1
  6
CONTINUOUS
 62
     3
  5
2CD
 10
-38.25
 20
318.3
 30
0.0
 11
38.25
 21
318.3
 31
0.0
  0
LINE
  8
LY_1
  6
CONTINUOUS
 62
     3
  5
2CE
 10
-37.82538
 20
307.8
 30
0.0
 11
-14.966006
 21
307.8
 31
0.0
  0
ARC
  8
LY_1
  6
CONTINUOUS
 62
     3
  5
2CF
 10
0.0
 20
454.262713
 30
0.0
 40
100.0
 50
56.532331
 51
123.467669
  0
ARC
  8
LY_1
  6
CONTINUOUS
 62
     3
  5
2D0
 10
0.0
 20
167.572236
 30
0.0
 40
386.690476
 50
79.74328
 51
100.205044
  0
ARC
  8
LY_1
  6
CONTINUOUS
 62
     3
  5
2D1
 10
286.690476
 20
454.262713
 30
0.0
 40
386.690476
 50
169.794956
 51
190.205044
  0
ARC
  8
LY_1
  6
CONTINUOUS
 62
     3
  5
2D2
 10
0.0
 20
740.953189
 30
0.0
 40
386.690476
 50
259.794956
 51
280.205044
  0
ARC
  8
LY_1
  6
CONTINUOUS
 62
     3
  5
2D3
 10
-286.690476
 20
454.262713
 30
0.0
 40
386.690476
 50
349.794956
 51
10.25672
  0
CIRCLE
  8
LY_1
  6
CONTINUOUS
 62
     3
  5
2D4
 10
75.483649
 20
529.746361
 30
0.0
 40
6.5
  0
CIRCLE
  8
LY_1
  6
CONTINUOUS
 62
     3
  5
2D5
 10
0.0
 20
454.262713
 30
0.0
 40
94.75
  0
LINE
  8
LY_1
  6
CONTINUOUS
 62
     3
  5
2D6
 10
76.380224
 20
526.400296
 30
0.0
 11
78.829714
 21
528.849786
 31
0.0
  0
LINE
  8
LY_1
  6
CONTINUOUS
 62
     3
  5
2D7
 10
72.137584
 20
530.642937
 30
0.0
 11
74.587073
 21
533.092427
 31
0.0
  0
LINE
  8
LY_1
  6
CONTINUOUS
 62
     3
  5
2D8
 10
78.829714
 20
528.849786
 30
0.0
 11
77.933139
 21
532.195851
 31
0.0
  0
LINE
  8
LY_1
  6
CONTINUOUS
 62
     3
  5
2D9
 10
73.034159
 20
527.296872
 30
0.0
 11
72.137584
 21
530.642937
 31
0.0
  0
LINE
  8
LY_1
  6
CONTINUOUS
 62
     3
  5
2DA
 10
77.933139
 20
532.195851
 30
0.0
 11
74.587073
 21
533.092427
 31
0.0
  0
LINE
  8
LY_1
  6
CONTINUOUS
 62
     3
  5
2DB
 10
76.380224
 20
526.400296
 30
0.0
 11
73.034159
 21
527.296872
 31
0.0
  0
CIRCLE
  8
LY_1
  6
CONTINUOUS
 62
     3
  5
2DC
 10
-75.483649
 20
529.746361
 30
0.0
 40
6.5
  0
CIRCLE
  8
LY_1
  6
CONTINUOUS
 62
     3
  5
2DD
 10
-75.483649
 20
529.746361
 30
0.0
 40
8.5
  0
LINE
  8
LY_1
  6
CONTINUOUS
 62
     3
  5
2DE
 10
-72.137584
 20
530.642937
 30
0.0
 11
-74.587073
 21
533.092427
 31
0.0
  0
LINE
  8
LY_1
  6
CONTINUOUS
 62
     3
  5
2DF
 10
-74.587073
 20
533.092427
 30
0.0
 11
-77.933139
 21
532.195851
 31
0.0
  0
LINE
  8
LY_1
  6
CONTINUOUS
 62
     3
  5
2E0
 10
-76.380224
 20
526.400296
 30
0.0
 11
-78.829714
 21
528.849786
 31
0.0
  0
LINE
  8
LY_1
  6
CONTINUOUS
 62
     3
  5
2E1
 10
-77.933139
 20
532.195851
 30
0.0
 11
-78.829714
 21
528.849786
 31
0.0
  0
LINE
  8
LY_1
  6
CONTINUOUS
 62
     3
  5
2E2
 10
-73.034159
 20
527.296872
 30
0.0
 11
-76.380224
 21
526.400296
 31
0.0
  0
LINE
  8
LY_1
  6
CONTINUOUS
 62
     3
  5
2E3
 10
-72.137584
 20
530.642937
 30
0.0
 11
-73.034159
 21
527.296872
 31
0.0
  0
CIRCLE
  8
LY_1
  6
CONTINUOUS
 62
     3
  5
2E4
 10
-75.483649
 20
378.779064
 30
0.0
 40
6.5
  0
CIRCLE
  8
LY_1
  6
CONTINUOUS
 62
     3
  5
2E5
 10
-75.483649
 20
378.779064
 30
0.0
 40
8.5
  0
LINE
  8
LY_1
  6
CONTINUOUS
 62
     3
  5
2E6
 10
-76.380224
 20
382.125129
 30
0.0
 11
-78.829714
 21
379.675639
 31
0.0
  0
LINE
  8
LY_1
  6
CONTINUOUS
 62
     3
  5
2E7
 10
-78.829714
 20
379.675639
 30
0.0
 11
-77.933139
 21
376.329574
 31
0.0
  0
LINE
  8
LY_1
  6
CONTINUOUS
 62
     3
  5
2E8
 10
-72.137584
 20
377.882488
 30
0.0
 11
-74.587073
 21
375.432998
 31
0.0
  0
LINE
  8
LY_1
  6
CONTINUOUS
 62
     3
  5
2E9
 10
-77.933139
 20
376.329574
 30
0.0
 11
-74.587073
 21
375.432998
 31
0.0
  0
LINE
  8
LY_1
  6
CONTINUOUS
 62
     3
  5
2EA
 10
-73.034159
 20
381.228553
 30
0.0
 11
-72.137584
 21
377.882488
 31
0.0
  0
LINE
  8
LY_1
  6
CONTINUOUS
 62
     3
  5
2EB
 10
-76.380224
 20
382.125129
 30
0.0
 11
-73.034159
 21
381.228553
 31
0.0
  0
CIRCLE
  8
LY_1
  6
CONTINUOUS
 62
     3
  5
2EC
 10
75.483649
 20
378.779064
 30
0.0
 40
6.5
  0
CIRCLE
  8
LY_1
  6
CONTINUOUS
 62
     3
  5
2ED
 10
75.483649
 20
378.779064
 30
0.0
 40
8.5
  0
LINE
  8
LY_1
  6
CONTINUOUS
 62
     3
  5
2EE
 10
72.137584
 20
377.882488
 30
0.0
 11
74.587073
 21
375.432998
 31
0.0
  0
LINE
  8
LY_1
  6
CONTINUOUS
 62
     3
  5
2EF
 10
74.587073
 20
375.432998
 30
0.0
 11
77.933139
 21
376.329574
 31
0.0
  0
LINE
  8
LY_1
  6
CONTINUOUS
 62
     3
  5
2F0
 10
76.380224
 20
382.125129
 30
0.0
 11
78.829714
 21
379.675639
 31
0.0
  0
LINE
  8
LY_1
  6
CONTINUOUS
 62
     3
  5
2F1
 10
77.933139
 20
376.329574
 30
0.0
 11
78.829714
 21
379.675639
 31
0.0
  0
LINE
  8
LY_1
  6
CONTINUOUS
 62
     3
  5
2F2
 10
73.034159
 20
381.228553
 30
0.0
 11
76.380224
 21
382.125129
 31
0.0
  0
LINE
  8
LY_1
  6
CONTINUOUS
 62
     3
  5
2F3
 10
72.137584
 20
377.882488
 30
0.0
 11
73.034159
 21
381.228553
 31
0.0
  0
ARC
  8
LY_1
  6
CONTINUOUS
 62
     3
  5
2F4
 10
0.0
 20
454.262713
 30
0.0
 40
116.375
 50
36.27445
 51
53.72555
  0
ARC
  8
LY_1
  6
CONTINUOUS
 62
     3
  5
2F5
 10
75.483649
 20
529.746361
 30
0.0
 40
19.498732
 50
109.87805
 51
153.46494
  0
ARC
  8
LY_1
  6
CONTINUOUS
 62
     3
  5
2F6
 10
75.483649
 20
529.746361
 30
0.0
 40
19.498732
 50
296.53506
 51
340.12195
  0
ARC
  8
LY_1
  6
CONTINUOUS
 62
     3
  5
2F7
 10
75.483649
 20
529.746361
 30
0.0
 40
12.0
 50
100.838728
 51
349.161272
  0
ARC
  8
LY_1
  6
CONTINUOUS
 62
     3
  5
2F8
 10
72.945038
 20
543.005526
 30
0.0
 40
1.5
 50
280.838728
 51
50.580394
  0
ARC
  8
LY_1
  6
CONTINUOUS
 62
     3
  5
2F9
 10
88.742814
 20
527.207751
 30
0.0
 40
1.5
 50
39.419606
 51
169.161272
  0
ARC
  8
LY_1
  6
CONTINUOUS
 62
     3
  5
2FA
 10
0.0
 20
454.262713
 30
0.0
 40
116.375
 50
126.446943
 51
143.553057
  0
ARC
  8
LY_1
  6
CONTINUOUS
 62
     3
  5
2FB
 10
-75.483649
 20
529.746361
 30
0.0
 40
12.0
 50
190.838728
 51
79.161272
  0
ARC
  8
LY_1
  6
CONTINUOUS
 62
     3
  5
2FC
 10
-88.742814
 20
527.207751
 30
0.0
 40
1.5
 50
10.838728
 51
140.580394
  0
ARC
  8
LY_1
  6
CONTINUOUS
 62
     3
  5
2FD
 10
-75.483649
 20
529.746361
 30
0.0
 40
19.498732
 50
199.87805
 51
243.46494
  0
ARC
  8
LY_1
  6
CONTINUOUS
 62
     3
  5
2FE
 10
-75.483649
 20
529.746361
 30
0.0
 40
19.498732
 50
26.53506
 51
67.600094
  0
ARC
  8
LY_1
  6
CONTINUOUS
 62
     3
  5
2FF
 10
-72.945038
 20
543.005526
 30
0.0
 40
1.5
 50
129.419606
 51
259.161272
  0
ARC
  8
LY_1
  6
CONTINUOUS
 62
     3
  5
300
 10
0.0
 20
454.262713
 30
0.0
 40
116.375
 50
216.446943
 51
233.553057
  0
ARC
  8
LY_1
  6
CONTINUOUS
 62
     3
  5
301
 10
-75.483649
 20
378.779064
 30
0.0
 40
12.0
 50
280.838728
 51
169.161272
  0
ARC
  8
LY_1
  6
CONTINUOUS
 62
     3
  5
302
 10
-72.945038
 20
365.519899
 30
0.0
 40
1.5
 50
100.838728
 51
230.580394
  0
ARC
  8
LY_1
  6
CONTINUOUS
 62
     3
  5
303
 10
-75.483649
 20
378.779064
 30
0.0
 40
19.498732
 50
292.399906
 51
333.46494
  0
ARC
  8
LY_1
  6
CONTINUOUS
 62
     3
  5
304
 10
-75.483649
 20
378.779064
 30
0.0
 40
19.498732
 50
116.53506
 51
160.12195
  0
ARC
  8
LY_1
  6
CONTINUOUS
 62
     3
  5
305
 10
-88.742814
 20
381.317674
 30
0.0
 40
1.5
 50
219.419606
 51
349.161272
  0
ARC
  8
LY_1
  6
CONTINUOUS
 62
     3
  5
306
 10
0.0
 20
454.262713
 30
0.0
 40
116.375
 50
306.446943
 51
323.553057
  0
ARC
  8
LY_1
  6
CONTINUOUS
 62
     3
  5
307
 10
75.483649
 20
378.779064
 30
0.0
 40
12.0
 50
10.838728
 51
259.161272
  0
ARC
  8
LY_1
  6
CONTINUOUS
 62
     3
  5
308
 10
88.742814
 20
381.317674
 30
0.0
 40
1.5
 50
190.838728
 51
320.580394
  0
ARC
  8
LY_1
  6
CONTINUOUS
 62
     3
  5
309
 10
75.483649
 20
378.779064
 30
0.0
 40
19.498732
 50
19.87805
 51
63.46494
  0
ARC
  8
LY_1
  6
CONTINUOUS
 62
     3
  5
30A
 10
75.483649
 20
378.779064
 30
0.0
 40
19.498732
 50
206.53506
 51
250.12195
  0
ARC
  8
LY_1
  6
CONTINUOUS
 62
     3
  5
30B
 10
72.945038
 20
365.519899
 30
0.0
 40
1.5
 50
309.419606
 51
79.161272
  0
ARC
  8
LY_1
  6
CONTINUOUS
 62
     3
  5
30C
 10
-68.244726
 20
546.669005
 30
0.0
 40
1.5
 50
100.205044
 51
126.446943
  0
ARC
  8
LY_1
  6
CONTINUOUS
 62
     3
  5
30D
 10
-92.406293
 20
522.507439
 30
0.0
 40
1.5
 50
143.553057
 51
169.794956
  0
ARC
  8
LY_1
  6
CONTINUOUS
 62
     3
  5
30E
 10
-92.406293
 20
386.017986
 30
0.0
 40
1.5
 50
190.205044
 51
216.446943
  0
ARC
  8
LY_1
  6
CONTINUOUS
 62
     3
  5
30F
 10
-68.624892
 20
362.138396
 30
0.0
 40
1.5
 50
233.316979
 51
292.399906
  0
ARC
  8
LY_1
  6
CONTINUOUS
 62
     3
  5
310
 10
-68.244726
 20
361.85642
 30
0.0
 40
1.5
 50
233.553057
 51
259.794956
  0
ARC
  8
LY_1
  6
CONTINUOUS
 62
     3
  5
311
 10
-68.624892
 20
546.387029
 30
0.0
 40
1.5
 50
67.600094
 51
126.683021
  0
ARC
  8
LY_1
  6
CONTINUOUS
 62
     3
  5
312
 10
-68.244726
 20
546.669005
 30
0.0
 40
1.5
 50
100.205044
 51
126.446943
  0
ARC
  8
LY_1
  6
CONTINUOUS
 62
     3
  5
313
 10
92.406293
 20
386.017986
 30
0.0
 40
1.5
 50
323.553057
 51
349.794956
  0
ARC
  8
LY_1
  6
CONTINUOUS
 62
     3
  5
314
 10
68.244726
 20
361.85642
 30
0.0
 40
1.5
 50
280.205044
 51
306.446943
  0
CIRCLE
  8
LY_1
  6
CONTINUOUS
 62
     3
  5
315
 10
89.25
 20
454.262713
 30
0.0
 40
5.25
  0
CIRCLE
  8
LY_1
  6
CONTINUOUS
 62
     3
  5
316
 10
0.0
 20
543.512713
 30
0.0
 40
5.25
  0
CIRCLE
  8
LY_1
  6
CONTINUOUS
 62
     3
  5
317
 10
-89.25
 20
454.262713
 30
0.0
 40
5.25
  0
CIRCLE
  8
LY_1
  6
CONTINUOUS
 62
     3
  5
318
 10
0.0
 20
365.012713
 30
0.0
 40
5.25
  0
ARC
  8
LY_1
  6
CONTINUOUS
 62
     3
  5
319
 10
0.0
 20
454.262713
 30
0.0
 40
83.125
 50
138.363406
 51
191.636594
  0
ARC
  8
LY_1
  6
CONTINUOUS
 62
     3
  5
31A
 10
0.0
 20
454.262713
 30
0.0
 40
80.125
 50
138.4205
 51
191.5795
  0
ARC
  8
LY_1
  6
CONTINUOUS
 62
     3
  5
31B
 10
0.0
 20
454.262713
 30
0.0
 40
76.625
 50
138.492762
 51
191.507238
  0
CIRCLE
  8
LY_1
  6
CONTINUOUS
 62
     3
  5
31C
 10
0.0
 20
454.262713
 30
0.0
 40
40.25
  0
CIRCLE
  8
LY_1
  6
CONTINUOUS
 62
     3
  5
31D
 10
0.0
 20
454.262713
 30
0.0
 40
35.875
  0
LINE
  8
LY_1
  6
CONTINUOUS
 62
     3
  5
31E
 10
-25.878367
 20
485.090827
 30
0.0
 11
-63.18313
 21
524.870464
 31
0.0
  0
LINE
  8
LY_1
  6
CONTINUOUS
 62
     3
  5
31F
 10
-30.828114
 20
480.141079
 30
0.0
 11
-70.607751
 21
517.445843
 31
0.0
  0
LINE
  8
LY_1
  6
CONTINUOUS
 62
     3
  5
320
 10
-39.637114
 20
447.265447
 30
0.0
 11
-92.739672
 21
434.848392
 31
0.0
  0
LINE
  8
LY_1
  6
CONTINUOUS
 62
     3
  5
321
 10
-37.82538
 20
440.503966
 30
0.0
 11
-90.022072
 21
424.706171
 31
0.0
  0
LINE
  8
LY_1
  6
CONTINUOUS
 62
     3
  5
322
 10
-13.758747
 20
416.437332
 30
0.0
 11
-29.556541
 21
364.240641
 31
0.0
  0
LINE
  8
LY_1
  6
CONTINUOUS
 62
     3
  5
323
 10
-6.997266
 20
414.625599
 30
0.0
 11
-19.41432
 21
361.523041
 31
0.0
  0
LINE
  8
LY_1
  6
CONTINUOUS
 62
     3
  5
324
 10
25.878367
 20
423.434598
 30
0.0
 11
63.18313
 21
383.654961
 31
0.0
  0
LINE
  8
LY_1
  6
CONTINUOUS
 62
     3
  5
325
 10
30.828114
 20
428.384346
 30
0.0
 11
70.607751
 21
391.079582
 31
0.0
  0
LINE
  8
LY_1
  6
CONTINUOUS
 62
     3
  5
326
 10
39.637114
 20
461.259978
 30
0.0
 11
92.739672
 21
473.677033
 31
0.0
  0
LINE
  8
LY_1
  6
CONTINUOUS
 62
     3
  5
327
 10
37.82538
 20
468.021459
 30
0.0
 11
90.022072
 21
483.819254
 31
0.0
  0
LINE
  8
LY_1
  6
CONTINUOUS
 62
     3
  5
328
 10
13.758747
 20
492.088093
 30
0.0
 11
29.556541
 21
544.284784
 31
0.0
  0
LINE
  8
LY_1
  6
CONTINUOUS
 62
     3
  5
329
 10
6.997266
 20
493.899826
 30
0.0
 11
19.41432
 21
547.002384
 31
0.0
  0
ARC
  8
LY_1
  6
CONTINUOUS
 62
     3
  5
32A
 10
0.0
 20
454.262713
 30
0.0
 40
83.125
 50
78.363406
 51
131.636594
  0
ARC
  8
LY_1
  6
CONTINUOUS
 62
     3
  5
32B
 10
0.0
 20
454.262713
 30
0.0
 40
80.125
 50
78.4205
 51
131.5795
  0
ARC
  8
LY_1
  6
CONTINUOUS
 62
     3
  5
32C
 10
0.0
 20
454.262713
 30
0.0
 40
76.625
 50
78.492762
 51
131.507238
  0
ARC
  8
LY_1
  6
CONTINUOUS
 62
     3
  5
32D
 10
0.0
 20
454.262713
 30
0.0
 40
83.125
 50
18.363406
 51
71.636594
  0
ARC
  8
LY_1
  6
CONTINUOUS
 62
     3
  5
32E
 10
0.0
 20
454.262713
 30
0.0
 40
80.125
 50
18.4205
 51
71.5795
  0
ARC
  8
LY_1
  6
CONTINUOUS
 62
     3
  5
32F
 10
0.0
 20
454.262713
 30
0.0
 40
76.625
 50
18.492762
 51
71.507238
  0
ARC
  8
LY_1
  6
CONTINUOUS
 62
     3
  5
330
 10
0.0
 20
454.262713
 30
0.0
 40
83.125
 50
318.363406
 51
11.636594
  0
ARC
  8
LY_1
  6
CONTINUOUS
 62
     3
  5
331
 10
0.0
 20
454.262713
 30
0.0
 40
80.125
 50
318.4205
 51
11.5795
  0
ARC
  8
LY_1
  6
CONTINUOUS
 62
     3
  5
332
 10
0.0
 20
454.262713
 30
0.0
 40
76.625
 50
318.492762
 51
11.507238
  0
ARC
  8
LY_1
  6
CONTINUOUS
 62
     3
  5
333
 10
0.0
 20
454.262713
 30
0.0
 40
83.125
 50
258.363406
 51
311.636594
  0
ARC
  8
LY_1
  6
CONTINUOUS
 62
     3
  5
334
 10
0.0
 20
454.262713
 30
0.0
 40
80.125
 50
258.4205
 51
311.5795
  0
ARC
  8
LY_1
  6
CONTINUOUS
 62
     3
  5
335
 10
0.0
 20
454.262713
 30
0.0
 40
76.625
 50
258.492762
 51
311.507238
  0
ARC
  8
LY_1
  6
CONTINUOUS
 62
     3
  5
336
 10
0.0
 20
454.262713
 30
0.0
 40
83.125
 50
198.363406
 51
251.636594
  0
ARC
  8
LY_1
  6
CONTINUOUS
 62
     3
  5
337
 10
0.0
 20
454.262713
 30
0.0
 40
80.125
 50
198.4205
 51
251.5795
  0
ARC
  8
LY_1
  6
CONTINUOUS
 62
     3
  5
338
 10
0.0
 20
454.262713
 30
0.0
 40
76.625
 50
198.492762
 51
251.507238
  0
LINE
  8
LY_1
  6
DASHED
 62
    80
  5
339
 10
53.5
 20
477.012713
 30
0.0
 11
53.5
 21
431.512713
 31
0.0
  0
LINE
  8
LY_1
  6
DASHED
 62
    80
  5
33A
 10
-52.5
 20
477.012713
 30
0.0
 11
-33.203915
 21
477.012713
 31
0.0
  0
LINE
  8
LY_1
  6
DASHED
 62
    80
  5
33B
 10
-52.5
 20
431.512713
 30
0.0
 11
-33.203915
 21
431.512713
 31
0.0
  0
LINE
  8
LY_1
  6
DASHED
 62
    80
  5
33C
 10
-52.5
 20
477.012713
 30
0.0
 11
-52.5
 21
431.512713
 31
0.0
  0
LINE
  8
LY_1
  6
DASHED
 62
    80
  5
33D
 10
-59.5
 20
477.012713
 30
0.0
 11
-59.5
 21
431.512713
 31
0.0
  0
LINE
  8
LY_1
  6
DASHED
 62
    80
  5
33E
 10
-66.5
 20
477.012713
 30
0.0
 11
-66.5
 21
431.512713
 31
0.0
  0
LINE
  8
LY_1
  6
DASHED
 62
    80
  5
33F
 10
-59.5
 20
477.012713
 30
0.0
 11
-66.5
 21
477.012713
 31
0.0
  0
LINE
  8
LY_1
  6
DASHED
 62
    80
  5
340
 10
-59.5
 20
431.512713
 30
0.0
 11
-66.5
 21
431.512713
 31
0.0
  0
LINE
  8
LY_1
  6
DASHED
 62
    80
  5
341
 10
-59.5
 20
473.512713
 30
0.0
 11
-52.5
 21
473.512713
 31
0.0
  0
LINE
  8
LY_1
  6
DASHED
 62
    80
  5
342
 10
-59.5
 20
435.012713
 30
0.0
 11
-52.5
 21
435.012713
 31
0.0
  0
LINE
  8
LY_1
  6
DASHED
 62
    80
  5
343
 10
-52.5
 20
470.887713
 30
0.0
 11
-36.65613
 21
470.887713
 31
0.0
  0
LINE
  8
LY_1
  6
DASHED
 62
    80
  5
344
 10
-52.5
 20
437.637713
 30
0.0
 11
-36.65613
 21
437.637713
 31
0.0
  0
LINE
  8
LY_1
  6
DASHED
 62
    80
  5
345
 10
-52.5
 20
469.887713
 30
0.0
 11
-37.093421
 21
469.887713
 31
0.0
  0
LINE
  8
LY_1
  6
DASHED
 62
    80
  5
346
 10
-52.5
 20
438.637713
 30
0.0
 11
-37.093421
 21
438.637713
 31
0.0
  0
LINE
  8
LY_1
  6
CONTINUOUS
 62
     3
  5
347
 10
100.0
 20
184.0
 30
0.0
 11
100.0
 21
115.249928
 31
0.0
  0
LINE
  8
LY_1
  6
CONTINUOUS
 62
     3
  5
348
 10
40.25
 20
316.3
 30
0.0
 11
40.25
 21
307.8
 31
0.0
  0
LINE
  8
LY_1
  6
CONTINUOUS
 62
     3
  5
349
 10
-92.739672
 20
193.0
 30
0.0
 11
92.75
 21
193.0
 31
0.0
  0
LINE
  8
LY_1
  6
CONTINUOUS
 62
     3
  5
34A
 10
-98.0
 20
186.0
 30
0.0
 11
98.0
 21
186.0
 31
0.0
  0
ARC
  8
LY_1
  6
CONTINUOUS
 62
     3
  5
34B
 10
98.0
 20
184.0
 30
0.0
 40
2.0
 50
0.0
 51
90.0
  0
LINE
  8
LY_1
  6
CONTINUOUS
 62
     3
  5
34C
 10
94.75
 20
191.0
 30
0.0
 11
94.75
 21
186.0
 31
0.0
  0
ARC
  8
LY_1
  6
CONTINUOUS
 62
     3
  5
34D
 10
92.75
 20
191.0
 30
0.0
 40
2.0
 50
0.0
 51
90.0
  0
ARC
  8
LY_1
  6
CONTINUOUS
 62
     3
  5
34E
 10
-70.762705
 20
192.997578
 30
0.0
 40
163.512705
 50
0.000849
 51
47.24038
  0
ARC
  8
LY_1
  6
CONTINUOUS
 62
     3
  5
34F
 10
-79.512705
 20
192.997578
 30
0.0
 40
165.899673
 50
0.0
 51
19.912329
  0
ARC
  8
LY_1
  6
CONTINUOUS
 62
     3
  5
350
 10
-79.512705
 20
192.997578
 30
0.0
 40
165.899673
 50
22.318952
 51
43.788563
  0
ARC
  8
LY_1
  6
CONTINUOUS
 62
     3
  5
351
 10
38.25
 20
316.3
 30
0.0
 40
2.0
 50
0.0
 51
90.0
  0
ARC
  8
LY_1
  6
CONTINUOUS
 62
     3
  5
352
 10
-81.937325
 20
192.997578
 30
0.0
 40
165.899673
 50
22.318952
 51
43.788563
  0
ARC
  8
LY_1
  6
CONTINUOUS
 62
     3
  5
353
 10
-81.937325
 20
192.997578
 30
0.0
 40
165.899673
 50
0.0
 51
19.912329
  0
LINE
  8
LY_1
  6
CONTINUOUS
 62
     3
  5
354
 10
30.828114
 20
313.05
 30
0.0
 11
25.878367
 21
313.05
 31
0.0
  0
ARC
  8
LY_1
  6
CONTINUOUS
 62
     3
  5
355
 10
-140.613644
 20
189.625577
 30
0.0
 40
211.248348
 50
0.915266
 51
35.750884
  0
ARC
  8
LY_1
  6
CONTINUOUS
 62
     3
  5
356
 10
-227.48484
 20
168.49791
 30
0.0
 40
291.698854
 50
4.818402
 51
29.706188
  0
LINE
  8
LY_1
  6
CONTINUOUS
 62
     3
  5
357
 10
25.878367
 20
313.05
 30
0.0
 11
25.878367
 21
307.825414
 31
0.0
  0
ARC
  8
LY_1
  6
CONTINUOUS
 62
     3
  5
358
 10
-228.319028
 20
181.686993
 30
0.0
 40
283.773179
 50
2.28478
 51
13.825701
  0
LINE
  8
LY_1
  6
CONTINUOUS
 62
     3
  5
359
 10
-39.637114
 20
313.05
 30
0.0
 11
-37.82538
 21
313.05
 31
0.0
  0
ARC
  8
LY_1
  6
CONTINUOUS
 62
     3
  5
35A
 10
746.511688
 20
174.445632
 30
0.0
 40
766.150712
 50
169.577228
 51
178.612295
  0
ARC
  8
LY_1
  6
CONTINUOUS
 62
     3
  5
35B
 10
578.963669
 20
173.987165
 30
0.0
 40
608.81716
 50
166.796239
 51
178.210411
  0
LINE
  8
LY_1
  6
CONTINUOUS
 62
     3
  5
35C
 10
-6.997266
 20
313.05
 30
0.0
 11
-6.997266
 21
307.825414
 31
0.0
  0
ARC
  8
LY_1
  6
CONTINUOUS
 62
     3
  5
35D
 10
748.396346
 20
185.572326
 30
0.0
 40
765.222784
 50
170.80677
 51
174.71928
  0
ARC
  8
LY_1
  6
CONTINUOUS
 62
     3
  5
35E
 10
60.541423
 20
198.93632
 30
0.0
 40
150.658421
 50
130.761572
 51
182.258182
  0
ARC
  8
LY_1
  6
CONTINUOUS
 62
     3
  5
35F
 10
60.541423
 20
198.93632
 30
0.0
 40
150.658421
 50
130.761572
 51
182.258182
  0
ARC
  8
LY_1
  6
CONTINUOUS
 62
     3
  5
360
 10
59.863287
 20
207.962948
 30
0.0
 40
139.559794
 50
134.425171
 51
159.866782
  0
LINE
  8
LY_1
  6
CONTINUOUS
 62
     3
  5
361
 10
-40.25
 20
316.3
 30
0.0
 11
-40.25
 21
312.531951
 31
0.0
  0
ARC
  8
LY_1
  6
CONTINUOUS
 62
     3
  5
362
 10
-38.25
 20
316.3
 30
0.0
 40
2.0
 50
90.0
 51
180.0
  0
LINE
  8
LY_1
  6
CONTINUOUS
 62
     3
  5
363
 10
-37.82538
 20
313.05
 30
0.0
 11
-37.82538
 21
307.825414
 31
0.0
  0
LINE
  8
LY_1
  6
CONTINUOUS
 62
     3
  5
364
 10
-92.739672
 20
199.035646
 30
0.0
 11
-92.739672
 21
193.0
 31
0.0
  0
ARC
  8
LY_1
  6
CONTINUOUS
 62
     3
  5
365
 10
56.209411
 20
199.035646
 30
0.0
 40
148.949083
 50
130.052193
 51
180.0
  0
ARC
  8
LY_1
  6
CONTINUOUS
 62
     3
  5
366
 10
-98.0
 20
184.0
 30
0.0
 40
2.0
 50
90.0
 51
180.0
  0
LINE
  8
LY_1
  6
CONTINUOUS
 62
     3
  5
367
 10
-94.75
 20
191.0
 30
0.0
 11
-94.75
 21
186.0
 31
0.0
  0
ARC
  8
LY_1
  6
CONTINUOUS
 62
     3
  5
368
 10
-92.75
 20
191.0
 30
0.0
 40
2.0
 50
90.0
 51
180.0
  0
LINE
  8
LY_1
  6
CONTINUOUS
 62
     3
  5
369
 10
-13.758747
 20
313.05
 30
0.0
 11
-6.997266
 21
313.05
 31
0.0
  0
LINE
  8
LY_1
  6
CONTINUOUS
 62
     3
  5
36A
 10
-6.997266
 20
307.8
 30
0.0
 11
25.878367
 21
307.8
 31
0.0
  0
LINE
  8
LY_1
  6
CONTINUOUS
 62
     3
  5
36B
 10
34.488242
 20
307.8
 30
0.0
 11
40.25
 21
307.8
 31
0.0
  0
ARC
  8
LY_1
  6
CONTINUOUS
 62
     3
  5
36C
 10
748.396346
 20
185.572326
 30
0.0
 40
765.222784
 50
175.207853
 51
179.457277
  0
ARC
  8
LY_1
  6
CONTINUOUS
 62
     3
  5
36D
 10
-228.319028
 20
181.686993
 30
0.0
 40
283.773179
 50
15.181327
 51
26.391634
  0
ARC
  8
LY_1
  6
CONTINUOUS
 62
     3
  5
36E
 10
203.81256
 20
188.705237
 30
0.0
 40
283.773179
 50
167.629222
 51
179.170143
  0
LINE
  8
LY_1
  6
CONTINUOUS
 62
     3
  5
36F
 10
-93.800451
 20
117.75
 30
0.0
 11
-69.135844
 21
117.75
 31
0.0
  0
LINE
  8
LY_1
  6
CONTINUOUS
 62
     3
  5
370
 10
93.800451
 20
147.25
 30
0.0
 11
93.800451
 21
117.75
 31
0.0
  0
LINE
  8
LY_1
  6
CONTINUOUS
 62
     3
  5
371
 10
87.269573
 20
147.25
 30
0.0
 11
87.269573
 21
136.452771
 31
0.0
  0
LINE
  8
LY_1
  6
CONTINUOUS
 62
     3
  5
372
 10
74.445038
 20
147.25
 30
0.0
 11
74.445038
 21
136.452771
 31
0.0
  0
LINE
  8
LY_1
  6
CONTINUOUS
 62
     3
  5
373
 10
68.510483
 20
147.25
 30
0.0
 11
68.510483
 21
117.75
 31
0.0
  0
LINE
  8
LY_1
  6
CONTINUOUS
 62
     3
  5
374
 10
74.445038
 20
136.452771
 30
0.0
 11
87.269573
 21
136.452771
 31
0.0
  0
LINE
  8
LY_1
  6
CONTINUOUS
 62
     3
  5
375
 10
58.00763
 20
149.25
 30
0.0
 11
91.800451
 21
149.25
 31
0.0
  0
LINE
  8
LY_1
  6
CONTINUOUS
 62
     3
  5
376
 10
56.00763
 20
147.25
 30
0.0
 11
56.00763
 21
138.75
 31
0.0
  0
ARC
  8
LY_1
  6
CONTINUOUS
 62
     3
  5
377
 10
91.800451
 20
147.25
 30
0.0
 40
2.0
 50
0.0
 51
90.0
  0
ARC
  8
LY_1
  6
CONTINUOUS
 62
     3
  5
378
 10
89.269573
 20
147.25
 30
0.0
 40
2.0
 50
90.0
 51
180.0
  0
ARC
  8
LY_1
  6
CONTINUOUS
 62
     3
  5
379
 10
72.445038
 20
147.25
 30
0.0
 40
2.0
 50
0.0
 51
90.0
  0
ARC
  8
LY_1
  6
CONTINUOUS
 62
     3
  5
37A
 10
70.510483
 20
147.25
 30
0.0
 40
2.0
 50
90.0
 51
180.0
  0
ARC
  8
LY_1
  6
CONTINUOUS
 62
     3
  5
37B
 10
58.00763
 20
147.25
 30
0.0
 40
2.0
 50
90.0
 51
180.0
  0
LINE
  8
LY_1
  6
CONTINUOUS
 62
     3
  5
37C
 10
100.0
 20
138.75
 30
0.0
 11
93.800451
 21
138.75
 31
0.0
  0
ARC
  8
LY_1
  6
CONTINUOUS
 62
     3
  5
37D
 10
0.0
 20
454.262713
 30
0.0
 40
100.0
 50
146.532331
 51
213.467669
  0
ARC
  8
LY_1
  6
CONTINUOUS
 62
     3
  5
37E
 10
0.0
 20
454.262713
 30
0.0
 40
100.0
 50
236.532331
 51
303.467669
  0
ARC
  8
LY_1
  6
CONTINUOUS
 62
     3
  5
37F
 10
0.0
 20
454.262713
 30
0.0
 40
100.0
 50
326.532331
 51
33.467669
  0
ARC
  8
LY_1
  6
CONTINUOUS
 62
     3
  5
380
 10
85.088108
 20
510.512281
 30
0.0
 40
2.0
 50
116.53506
 51
213.467669
  0
ARC
  8
LY_1
  6
CONTINUOUS
 62
     3
  5
381
 10
56.249568
 20
539.35082
 30
0.0
 40
2.0
 50
236.532331
 51
333.46494
  0
ARC
  8
LY_1
  6
CONTINUOUS
 62
     3
  5
382
 10
-56.249568
 20
539.35082
 30
0.0
 40
2.0
 50
206.53506
 51
303.467669
  0
ARC
  8
LY_1
  6
CONTINUOUS
 62
     3
  5
383
 10
-85.088108
 20
510.512281
 30
0.0
 40
2.0
 50
326.532331
 51
63.46494
  0
ARC
  8
LY_1
  6
CONTINUOUS
 62
     3
  5
384
 10
-85.088108
 20
398.013144
 30
0.0
 40
2.0
 50
296.53506
 51
33.467669
  0
ARC
  8
LY_1
  6
CONTINUOUS
 62
     3
  5
385
 10
-56.249568
 20
369.174605
 30
0.0
 40
2.0
 50
56.532331
 51
153.46494
  0
ARC
  8
LY_1
  6
CONTINUOUS
 62
     3
  5
386
 10
56.249568
 20
369.174605
 30
0.0
 40
2.0
 50
26.53506
 51
123.467669
  0
ARC
  8
LY_1
  6
CONTINUOUS
 62
     3
  5
387
 10
85.088108
 20
398.013144
 30
0.0
 40
2.0
 50
146.532331
 51
243.46494
  0
LINE
  8
LY_1
  6
CONTINUOUS
 62
     3
  5
388
 10
-78.260431
 20
256.0
 30
0.0
 11
-78.142854
 21
249.5
 31
0.0
  0
LINE
  8
LY_1
  6
CONTINUOUS
 62
     3
  5
389
 10
49.905808
 20
256.0
 30
0.0
 11
50.080173
 21
249.5
 31
0.0
  0
LINE
  8
LY_1
  6
CONTINUOUS
 62
     3
  5
38A
 10
79.654862
 20
256.0
 30
0.0
 11
79.708118
 21
249.5
 31
0.0
  0
LINE
  8
LY_1
  6
CONTINUOUS
 62
     3
  5
38B
 10
-14.858146
 20
256.0
 30
0.0
 11
-15.123337
 21
249.5
 31
0.0
  0
ARC
  8
LY_1
  6
CONTINUOUS
 62
     3
  5
38C
 10
-0.31268
 20
792.647152
 30
0.0
 40
678.397224
 50
264.177346
 51
275.822654
  0
LINE
  8
LY_1
  6
CONTINUOUS
 62
     3
  5
38D
 10
68.510483
 20
117.75
 30
0.0
 11
93.800451
 21
117.75
 31
0.0
  0
LINE
  8
LY_1
  6
CONTINUOUS
 62
     3
  5
38E
 10
83.983649
 20
137.952771
 30
0.0
 11
83.983649
 21
136.452771
 31
0.0
  0
LINE
  8
LY_1
  6
CONTINUOUS
 62
     3
  5
38F
 10
81.983649
 20
146.952771
 30
0.0
 11
81.983649
 21
137.952771
 31
0.0
  0
LINE
  8
LY_1
  6
CONTINUOUS
 62
     3
  5
390
 10
74.445038
 20
137.952771
 30
0.0
 11
83.983649
 21
137.952771
 31
0.0
  0
LINE
  8
LY_1
  6
CONTINUOUS
 62
     3
  5
391
 10
74.445038
 20
139.952771
 30
0.0
 11
81.983649
 21
139.952771
 31
0.0
  0
LINE
  8
LY_1
  6
CONTINUOUS
 62
     3
  5
392
 10
74.326795
 20
147.952771
 30
0.0
 11
80.983649
 21
147.952771
 31
0.0
  0
ARC
  8
LY_1
  6
CONTINUOUS
 62
     3
  5
393
 10
80.983649
 20
146.952771
 30
0.0
 40
1.0
 50
0.0
 51
90.0
  0
LINE
  8
LY_1
  6
CONTINUOUS
 62
     3
  5
394
 10
-93.800451
 20
147.25
 30
0.0
 11
-93.800451
 21
117.75
 31
0.0
  0
LINE
  8
LY_1
  6
CONTINUOUS
 62
     3
  5
395
 10
-68.510483
 20
147.25
 30
0.0
 11
-68.510483
 21
117.75
 31
0.0
  0
ARC
  8
LY_1
  6
CONTINUOUS
 62
     3
  5
396
 10
-80.983649
 20
146.952771
 30
0.0
 40
1.0
 50
90.0
 51
180.0
  0
LINE
  8
LY_1
  6
CONTINUOUS
 62
     3
  5
397
 10
-74.326795
 20
147.952771
 30
0.0
 11
-80.983649
 21
147.952771
 31
0.0
  0
LINE
  8
LY_1
  6
CONTINUOUS
 62
     3
  5
398
 10
-74.445038
 20
139.952771
 30
0.0
 11
-81.983649
 21
139.952771
 31
0.0
  0
LINE
  8
LY_1
  6
CONTINUOUS
 62
     3
  5
399
 10
-74.445038
 20
137.952771
 30
0.0
 11
-83.983649
 21
137.952771
 31
0.0
  0
LINE
  8
LY_1
  6
CONTINUOUS
 62
     3
  5
39A
 10
-81.983649
 20
146.952771
 30
0.0
 11
-81.983649
 21
137.952771
 31
0.0
  0
LINE
  8
LY_1
  6
CONTINUOUS
 62
     3
  5
39B
 10
-83.983649
 20
137.952771
 30
0.0
 11
-83.983649
 21
136.452771
 31
0.0
  0
ARC
  8
LY_1
  6
CONTINUOUS
 62
     3
  5
39C
 10
-58.00763
 20
147.25
 30
0.0
 40
2.0
 50
0.0
 51
90.0
  0
ARC
  8
LY_1
  6
CONTINUOUS
 62
     3
  5
39D
 10
-70.510483
 20
147.25
 30
0.0
 40
2.0
 50
0.0
 51
90.0
  0
ARC
  8
LY_1
  6
CONTINUOUS
 62
     3
  5
39E
 10
-72.445038
 20
147.25
 30
0.0
 40
2.0
 50
90.0
 51
180.0
  0
ARC
  8
LY_1
  6
CONTINUOUS
 62
     3
  5
39F
 10
-89.269573
 20
147.25
 30
0.0
 40
2.0
 50
0.0
 51
90.0
  0
ARC
  8
LY_1
  6
CONTINUOUS
 62
     3
  5
3A0
 10
-91.800451
 20
147.25
 30
0.0
 40
2.0
 50
90.0
 51
180.0
  0
LINE
  8
LY_1
  6
CONTINUOUS
 62
     3
  5
3A1
 10
-56.00763
 20
147.25
 30
0.0
 11
-56.00763
 21
138.75
 31
0.0
  0
LINE
  8
LY_1
  6
CONTINUOUS
 62
     3
  5
3A2
 10
-58.00763
 20
149.25
 30
0.0
 11
-91.800451
 21
149.25
 31
0.0
  0
LINE
  8
LY_1
  6
CONTINUOUS
 62
     3
  5
3A3
 10
-74.445038
 20
136.452771
 30
0.0
 11
-87.269573
 21
136.452771
 31
0.0
  0
LINE
  8
LY_1
  6
CONTINUOUS
 62
     3
  5
3A4
 10
-74.445038
 20
147.25
 30
0.0
 11
-74.445038
 21
136.452771
 31
0.0
  0
LINE
  8
LY_1
  6
CONTINUOUS
 62
     3
  5
3A5
 10
-87.269573
 20
147.25
 30
0.0
 11
-87.269573
 21
136.452771
 31
0.0
  0
LINE
  8
LY_1
  6
CONTINUOUS
 62
     3
  5
3A6
 10
-89.125
 20
105.5
 30
0.0
 11
89.125
 21
105.5
 31
0.0
  0
LINE
  8
LY_1
  6
CONTINUOUS
 62
     3
  5
3A7
 10
90.125
 20
114.249928
 30
0.0
 11
90.125
 21
106.5
 31
0.0
  0
LINE
  8
LY_1
  6
CONTINUOUS
 62
     3
  5
3A8
 10
90.125
 20
114.249928
 30
0.0
 11
99.0
 21
114.249928
 31
0.0
  0
ARC
  8
LY_1
  6
CONTINUOUS
 62
     3
  5
3A9
 10
99.0
 20
115.249928
 30
0.0
 40
1.0
 50
270.0
 51
0.0
  0
ARC
  8
LY_1
  6
CONTINUOUS
 62
     3
  5
3AA
 10
89.125
 20
106.5
 30
0.0
 40
1.0
 50
270.0
 51
0.0
  0
LINE
  8
LY_1
  6
CONTINUOUS
 62
     3
  5
3AB
 10
100.0
 20
115.249928
 30
0.0
 11
93.800451
 21
117.75
 31
0.0
  0
ARC
  8
LY_1
  6
CONTINUOUS
 62
     3
  5
3AC
 10
-99.0
 20
115.249928
 30
0.0
 40
1.0
 50
180.0
 51
270.0
  0
LINE
  8
LY_1
  6
CONTINUOUS
 62
     3
  5
3AD
 10
-100.0
 20
115.249928
 30
0.0
 11
-93.800451
 21
117.75
 31
0.0
  0
LINE
  8
LY_1
  6
CONTINUOUS
 62
     3
  5
3AE
 10
-90.125
 20
114.249928
 30
0.0
 11
-99.0
 21
114.249928
 31
0.0
  0
LINE
  8
LY_1
  6
CONTINUOUS
 62
     3
  5
3AF
 10
-90.125
 20
114.249928
 30
0.0
 11
-90.125
 21
106.5
 31
0.0
  0
ARC
  8
LY_1
  6
CONTINUOUS
 62
     3
  5
3B0
 10
-89.125
 20
106.5
 30
0.0
 40
1.0
 50
180.0
 51
270.0
  0
LINE
  8
LY_1
  6
CONTINUOUS
 62
     3
  5
3B1
 10
56.00763
 20
138.75
 30
0.0
 11
-56.00763
 21
138.75
 31
0.0
  0
LINE
  8
LY_1
  6
CONTINUOUS
 62
     3
  5
3B2
 10
-100.0
 20
138.75
 30
0.0
 11
-93.800451
 21
138.75
 31
0.0
  0
LINE
  8
LY_1
  6
CONTINUOUS
 62
     3
  5
3B3
 10
-31.5
 20
98.5
 30
0.0
 11
31.5
 21
98.5
 31
0.0
  0
LINE
  8
LY_1
  6
CONTINUOUS
 62
     3
  5
3B4
 10
31.5
 20
98.5
 30
0.0
 11
31.5
 21
81.438904
 31
0.0
  0
LINE
  8
LY_1
  6
CONTINUOUS
 62
     3
  5
3B5
 10
31.5
 20
98.5
 30
0.0
 11
89.245464
 21
105.507282
 31
0.0
  0
LINE
  8
LY_1
  6
CONTINUOUS
 62
     3
  5
3B6
 10
-31.5
 20
98.5
 30
0.0
 11
-89.245464
 21
105.507282
 31
0.0
  0
LINE
  8
LY_1
  6
CONTINUOUS
 62
     3
  5
3B7
 10
-31.5
 20
98.5
 30
0.0
 11
-31.5
 21
81.438904
 31
0.0
  0
LINE
  8
LY_1
  6
CONTINUOUS
 62
     3
  5
3B8
 10
28.525
 20
0.0
 30
0.0
 11
57.5
 21
0.0
 31
0.0
  0
ARC
  8
LY_1
  6
CONTINUOUS
 62
     3
  5
3B9
 10
0.0
 20
55.0
 30
0.0
 40
41.125
 50
196.906241
 51
343.093759
  0
LINE
  8
LY_1
  6
CONTINUOUS
 62
     3
  5
3BA
 10
-52.5
 20
77.75
 30
0.0
 11
-34.259351
 21
77.75
 31
0.0
  0
LINE
  8
LY_1
  6
DASHED
 62
    80
  5
3BB
 10
-52.5
 20
71.625
 30
0.0
 11
-37.614824
 21
71.625
 31
0.0
  0
LINE
  8
LY_1
  6
DASHED
 62
    80
  5
3BC
 10
-52.5
 20
70.625
 30
0.0
 11
-38.041096
 21
70.625
 31
0.0
  0
LINE
  8
LY_1
  6
CONTINUOUS
 62
     3
  5
3BD
 10
53.5
 20
77.75
 30
0.0
 11
53.5
 21
59.220486
 31
0.0
  0
LINE
  8
LY_1
  6
CONTINUOUS
 62
     3
  5
3BE
 10
-52.5
 20
32.25
 30
0.0
 11
-34.259351
 21
32.25
 31
0.0
  0
LINE
  8
LY_1
  6
DASHED
 62
    80
  5
3BF
 10
-52.5
 20
38.375
 30
0.0
 11
-37.614824
 21
38.375
 31
0.0
  0
LINE
  8
LY_1
  6
DASHED
 62
    80
  5
3C0
 10
-52.5
 20
39.375
 30
0.0
 11
-38.041096
 21
39.375
 31
0.0
  0
LINE
  8
LY_1
  6
CONTINUOUS
 62
     3
  5
3C1
 10
-52.5
 20
77.75
 30
0.0
 11
-52.5
 21
61.309715
 31
0.0
  0
LINE
  8
LY_1
  6
CONTINUOUS
 62
     3
  5
3C2
 10
-59.5
 20
77.75
 30
0.0
 11
-59.5
 21
32.25
 31
0.0
  0
LINE
  8
LY_1
  6
CONTINUOUS
 62
     3
  5
3C3
 10
-66.5
 20
77.75
 30
0.0
 11
-66.5
 21
32.25
 31
0.0
  0
LINE
  8
LY_1
  6
CONTINUOUS
 62
     3
  5
3C4
 10
-59.5
 20
74.25
 30
0.0
 11
-52.5
 21
74.25
 31
0.0
  0
LINE
  8
LY_1
  6
CONTINUOUS
 62
     3
  5
3C5
 10
-59.5
 20
77.75
 30
0.0
 11
-66.5
 21
77.75
 31
0.0
  0
LINE
  8
LY_1
  6
CONTINUOUS
 62
     3
  5
3C6
 10
-59.5
 20
35.75
 30
0.0
 11
-52.5
 21
35.75
 31
0.0
  0
LINE
  8
LY_1
  6
CONTINUOUS
 62
     3
  5
3C7
 10
-59.5
 20
32.25
 30
0.0
 11
-66.5
 21
32.25
 31
0.0
  0
CIRCLE
  8
LY_1
  6
CONTINUOUS
 62
     3
  5
3C8
 10
-42.0
 20
55.0
 30
0.0
 40
12.25
  0
CIRCLE
  8
LY_1
  6
CONTINUOUS
 62
     3
  5
3C9
 10
-42.0
 20
55.0
 30
0.0
 40
6.5
  0
LINE
  8
LY_1
  6
CONTINUOUS
 62
     3
  5
3CA
 10
-45.0
 20
53.267949
 30
0.0
 11
-45.0
 21
56.732051
 31
0.0
  0
LINE
  8
LY_1
  6
CONTINUOUS
 62
     3
  5
3CB
 10
-45.0
 20
56.732051
 30
0.0
 11
-42.0
 21
58.464102
 31
0.0
  0
LINE
  8
LY_1
  6
CONTINUOUS
 62
     3
  5
3CC
 10
-39.0
 20
53.267949
 30
0.0
 11
-39.0
 21
56.732051
 31
0.0
  0
LINE
  8
LY_1
  6
CONTINUOUS
 62
     3
  5
3CD
 10
-42.0
 20
58.464102
 30
0.0
 11
-39.0
 21
56.732051
 31
0.0
  0
LINE
  8
LY_1
  6
CONTINUOUS
 62
     3
  5
3CE
 10
-42.0
 20
51.535898
 30
0.0
 11
-39.0
 21
53.267949
 31
0.0
  0
LINE
  8
LY_1
  6
CONTINUOUS
 62
     3
  5
3CF
 10
-45.0
 20
53.267949
 30
0.0
 11
-42.0
 21
51.535898
 31
0.0
  0
CIRCLE
  8
LY_1
  6
CONTINUOUS
 62
     3
  5
3D0
 10
-42.0
 20
55.0
 30
0.0
 40
8.5
  0
LINE
  8
LY_1
  6
CONTINUOUS
 62
     3
  5
3D1
 10
34.259351
 20
77.75
 30
0.0
 11
53.5
 21
77.75
 31
0.0
  0
LINE
  8
LY_1
  6
CONTINUOUS
 62
     3
  5
3D2
 10
34.259351
 20
32.25
 30
0.0
 11
53.5
 21
32.25
 31
0.0
  0
CIRCLE
  8
LY_1
  6
CONTINUOUS
 62
     3
  5
3D3
 10
42.0
 20
55.0
 30
0.0
 40
12.25
  0
CIRCLE
  8
LY_1
  6
CONTINUOUS
 62
     3
  5
3D4
 10
42.0
 20
55.0
 30
0.0
 40
6.5
  0
LINE
  8
LY_1
  6
CONTINUOUS
 62
     3
  5
3D5
 10
45.0
 20
53.267949
 30
0.0
 11
45.0
 21
56.732051
 31
0.0
  0
LINE
  8
LY_1
  6
CONTINUOUS
 62
     3
  5
3D6
 10
42.0
 20
58.464102
 30
0.0
 11
39.0
 21
56.732051
 31
0.0
  0
CIRCLE
  8
LY_1
  6
CONTINUOUS
 62
     3
  5
3D7
 10
42.0
 20
55.0
 30
0.0
 40
8.5
  0
LINE
  8
LY_1
  6
CONTINUOUS
 62
     3
  5
3D8
 10
45.0
 20
56.732051
 30
0.0
 11
42.0
 21
58.464102
 31
0.0
  0
LINE
  8
LY_1
  6
CONTINUOUS
 62
     3
  5
3D9
 10
45.0
 20
53.267949
 30
0.0
 11
42.0
 21
51.535898
 31
0.0
  0
LINE
  8
LY_1
  6
CONTINUOUS
 62
     3
  5
3DA
 10
42.0
 20
51.535898
 30
0.0
 11
39.0
 21
53.267949
 31
0.0
  0
LINE
  8
LY_1
  6
CONTINUOUS
 62
     3
  5
3DB
 10
39.0
 20
53.267949
 30
0.0
 11
39.0
 21
56.732051
 31
0.0
  0
ARC
  8
LY_1
  6
CONTINUOUS
 62
     3
  5
3DC
 10
0.0
 20
55.0
 30
0.0
 40
41.125
 50
16.906241
 51
163.093759
  0
LINE
  8
LY_1
  6
CONTINUOUS
 62
     3
  5
3DD
 10
53.5
 20
50.779514
 30
0.0
 11
53.5
 21
32.25
 31
0.0
  0
LINE
  8
LY_1
  6
CONTINUOUS
 62
     3
  5
3DE
 10
-52.5
 20
48.690285
 30
0.0
 11
-52.5
 21
32.25
 31
0.0
  0
LINE
  8
LY_1
  6
DASHED
 62
    80
  5
3DF
 10
37.614824
 20
71.625
 30
0.0
 11
53.5
 21
71.625
 31
0.0
  0
LINE
  8
LY_1
  6
DASHED
 62
    80
  5
3E0
 10
38.041096
 20
70.625
 30
0.0
 11
53.5
 21
70.625
 31
0.0
  0
LINE
  8
LY_1
  6
DASHED
 62
    80
  5
3E1
 10
37.614824
 20
38.375
 30
0.0
 11
53.5
 21
38.375
 31
0.0
  0
LINE
  8
LY_1
  6
DASHED
 62
    80
  5
3E2
 10
38.041096
 20
39.375
 30
0.0
 11
53.5
 21
39.375
 31
0.0
  0
LINE
  8
LY_1
  6
CONTINUOUS
 62
     3
  5
3E3
 10
36.75
 20
32.25
 30
0.0
 11
36.75
 21
10.5
 31
0.0
  0
LINE
  8
LY_1
  6
CONTINUOUS
 62
     3
  5
3E4
 10
28.525
 20
25.375854
 30
0.0
 11
28.525
 21
0.0
 31
0.0
  0
LINE
  8
LY_1
  6
CONTINUOUS
 62
     3
  5
3E5
 10
28.525
 20
10.5
 30
0.0
 11
57.5
 21
10.5
 31
0.0
  0
LINE
  8
LY_1
  6
CONTINUOUS
 62
     3
  5
3E6
 10
57.5
 20
10.5
 30
0.0
 11
57.5
 21
0.0
 31
0.0
  0
LINE
  8
LY_1
  6
DASHED
 62
    80
  5
3E7
 10
50.0
 20
10.5
 30
0.0
 11
50.0
 21
0.0
 31
0.0
  0
LINE
  8
LY_1
  6
DASHED
 62
    80
  5
3E8
 10
40.0
 20
10.5
 30
0.0
 11
40.0
 21
0.0
 31
0.0
  0
LINE
  8
LY_1
  6
CONTINUOUS
 62
     3
  5
3E9
 10
-28.525
 20
0.0
 30
0.0
 11
-57.5
 21
0.0
 31
0.0
  0
LINE
  8
LY_1
  6
CONTINUOUS
 62
     3
  5
3EA
 10
-28.525
 20
10.5
 30
0.0
 11
-57.5
 21
10.5
 31
0.0
  0
LINE
  8
LY_1
  6
DASHED
 62
    80
  5
3EB
 10
-40.0
 20
10.5
 30
0.0
 11
-40.0
 21
0.0
 31
0.0
  0
LINE
  8
LY_1
  6
DASHED
 62
    80
  5
3EC
 10
-50.0
 20
10.5
 30
0.0
 11
-50.0
 21
0.0
 31
0.0
  0
LINE
  8
LY_1
  6
CONTINUOUS
 62
     3
  5
3ED
 10
-57.5
 20
10.5
 30
0.0
 11
-57.5
 21
0.0
 31
0.0
  0
LINE
  8
LY_1
  6
CONTINUOUS
 62
     3
  5
3EE
 10
-36.75
 20
32.25
 30
0.0
 11
-36.75
 21
10.5
 31
0.0
  0
LINE
  8
LY_1
  6
CONTINUOUS
 62
     3
  5
3EF
 10
-28.525
 20
25.375854
 30
0.0
 11
-28.525
 21
0.0
 31
0.0
  0
CIRCLE
  8
LY_1
  6
DASHED
 62
    80
  5
3F0
 10
0.0
 20
55.0
 30
0.0
 40
33.25
  0
LINE
  8
LY_1
  6
CONTINUOUS
 62
     3
  5
3F1
 10
-23.375
 20
80.375
 30
0.0
 11
23.375
 21
80.375
 31
0.0
  0
LINE
  8
LY_1
  6
CONTINUOUS
 62
     3
  5
3F2
 10
-23.375
 20
29.625
 30
0.0
 11
23.375
 21
29.625
 31
0.0
  0
LINE
  8
LY_1
  6
CONTINUOUS
 62
     3
  5
3F3
 10
-25.375
 20
31.625
 30
0.0
 11
-25.375
 21
78.375
 31
0.0
  0
LINE
  8
LY_1
  6
CONTINUOUS
 62
     3
  5
3F4
 10
25.375
 20
31.625
 30
0.0
 11
25.375
 21
78.375
 31
0.0
  0
ARC
  8
LY_1
  6
CONTINUOUS
 62
     3
  5
3F5
 10
23.375
 20
78.375
 30
0.0
 40
2.0
 50
0.0
 51
90.0
  0
ARC
  8
LY_1
  6
CONTINUOUS
 62
     3
  5
3F6
 10
23.375
 20
31.625
 30
0.0
 40
2.0
 50
270.0
 51
0.0
  0
ARC
  8
LY_1
  6
CONTINUOUS
 62
     3
  5
3F7
 10
-23.375
 20
31.625
 30
0.0
 40
2.0
 50
180.0
 51
270.0
  0
ARC
  8
LY_1
  6
CONTINUOUS
 62
     3
  5
3F8
 10
-23.375
 20
78.375
 30
0.0
 40
2.0
 50
90.0
 51
180.0
  0
CIRCLE
  8
LY_1
  6
CONTINUOUS
 62
     3
  5
3F9
 10
21.375
 20
76.375
 30
0.0
 40
1.75
  0
CIRCLE
  8
LY_1
  6
CONTINUOUS
 62
     3
  5
3FA
 10
-21.375
 20
76.375
 30
0.0
 40
1.75
  0
CIRCLE
  8
LY_1
  6
CONTINUOUS
 62
     3
  5
3FB
 10
-21.375
 20
33.625
 30
0.0
 40
1.75
  0
CIRCLE
  8
LY_1
  6
CONTINUOUS
 62
     3
  5
3FC
 10
21.375
 20
33.625
 30
0.0
 40
1.75
  0
LINE
  8
LY_1
  6
DASHED
 62
    80
  5
3FD
 10
36.65613
 20
470.887713
 30
0.0
 11
53.5
 21
470.887713
 31
0.0
  0
LINE
  8
LY_1
  6
DASHED
 62
    80
  5
3FE
 10
37.093421
 20
469.887713
 30
0.0
 11
53.5
 21
469.887713
 31
0.0
  0
LINE
  8
LY_1
  6
DASHED
 62
    80
  5
3FF
 10
36.65613
 20
437.637713
 30
0.0
 11
53.5
 21
437.637713
 31
0.0
  0
LINE
  8
LY_1
  6
DASHED
 62
    80
  5
400
 10
37.093421
 20
438.637713
 30
0.0
 11
53.5
 21
438.637713
 31
0.0
  0
LINE
  8
LY_1
  6
DASHED
 62
    80
  5
401
 10
33.203915
 20
477.012713
 30
0.0
 11
53.5
 21
477.012713
 31
0.0
  0
LINE
  8
LY_1
  6
DASHED
 62
    80
  5
402
 10
33.203915
 20
431.512713
 30
0.0
 11
53.5
 21
431.512713
 31
0.0
  0
ENDSEC
  0
EOF
