  0
SECTION
  2
HEADER
  9
$ACADVER
  1
AC1009
  9
$DWGCODEPAGE
  3
dos932
  9
$INSBASE
 10
0.0
 20
0.0
 30
0.0
  9
$EXTMIN
 10
0.0
 20
0.0
 30
0.0
  9
$EXTMAX
 10
115.321591
 20
636.5
 30
0.0
  9
$LIMMIN
 10
0.0
 20
0.0
  9
$LIMMAX
 10
115.321591
 20
636.5
  9
$ORTHOMODE
 70
     0
  9
$REGENMODE
 70
     1
  9
$FILLMODE
 70
     1
  9
$QTEXTMODE
 70
     0
  9
$MIRRTEXT
 70
     1
  9
$DRAGMODE
 70
     2
  9
$LTSCALE
 40
1.0
  9
$OSMODE
 70
     0
  9
$ATTMODE
 70
     1
  9
$TEXTSIZE
 40
4.1656
  9
$TRACEWID
 40
0.05
  9
$TEXTSTYLE
  7
MX_NOTE_STANDARD
  9
$CLAYER
  8
0
  9
$CELTYPE
  6
CONTINUOUS
  9
$CECOLOR
 62
   256
  9
$DIMSCALE
 40
1.0
  9
$DIMASZ
 40
2.5
  9
$DIMEXO
 40
0.5
  9
$DIMDLI
 40
3.75
  9
$DIMRND
 40
0.0
  9
$DIMDLE
 40
0.0
  9
$DIMEXE
 40
1.0
  9
$DIMTP
 40
0.0
  9
$DIMTM
 40
0.0
  9
$DIMTXT
 40
2.5
  9
$DIMCEN
 40
2.5
  9
$DIMTSZ
 40
0.0
  9
$DIMTOL
 70
     0
  9
$DIMLIM
 70
     0
  9
$DIMTIH
 70
     0
  9
$DIMTOH
 70
     0
  9
$DIMSE1
 70
     0
  9
$DIMSE2
 70
     0
  9
$DIMTAD
 70
     1
  9
$DIMZIN
 70
     8
  9
$DIMBLK
  1

  9
$DIMASO
 70
     1
  9
$DIMSHO
 70
     1
  9
$DIMPOST
  1

  9
$DIMAPOST
  1

  9
$DIMALT
 70
     0
  9
$DIMALTD
 70
     4
  9
$DIMALTF
 40
0.03937
  9
$DIMLFAC
 40
1.0
  9
$DIMTOFL
 70
     1
  9
$DIMTVP
 40
0.0
  9
$DIMTIX
 70
     0
  9
$DIMSOXD
 70
     0
  9
$DIMSAH
 70
     0
  9
$DIMBLK1
  1

  9
$DIMBLK2
  1

  9
$DIMSTYLE
  2
MXDIMSTYLE
  9
$DIMCLRD
 70
     0
  9
$DIMCLRE
 70
     0
  9
$DIMCLRT
 70
     0
  9
$DIMTFAC
 40
1.0
  9
$DIMGAP
 40
1.0
  9
$LUNITS
 70
     2
  9
$LUPREC
 70
     4
  9
$AXISMODE
 70
     0
  9
$AXISUNIT
 10
0.0
 20
0.0
  9
$SKETCHINC
 40
0.1
  9
$FILLETRAD
 40
0.0
  9
$AUNITS
 70
     0
  9
$AUPREC
 70
     0
  9
$MENU
  1
acad
  9
$ELEVATION
 40
0.0
  9
$PELEVATION
 40
0.0
  9
$THICKNESS
 40
0.0
  9
$LIMCHECK
 70
     0
  9
$BLIPMODE
 70
     1
  9
$CHAMFERA
 40
0.0
  9
$CHAMFERB
 40
0.0
  9
$SKPOLY
 70
     0
  9
$TDCREATE
 40
2453858.567557870
  9
$TDUPDATE
 40
2453858.567557870
  9
$TDINDWG
 40
0.0000000000
  9
$TDUSRTIMER
 40
0.0000000000
  9
$USRTIMER
 70
     1
  9
$ANGBASE
 50
0.0
  9
$ANGDIR
 70
     0
  9
$PDMODE
 70
     0
  9
$PDSIZE
 40
0.0
  9
$PLINEWID
 40
0.0
  9
$COORDS
 70
     1
  9
$SPLFRAME
 70
     0
  9
$SPLINETYPE
 70
     6
  9
$SPLINESEGS
 70
     8
  9
$ATTDIA
 70
     0
  9
$ATTREQ
 70
     1
  9
$HANDLING
 70
     1
  9
$HANDSEED
  5
134
  9
$SURFTAB1
 70
     6
  9
$SURFTAB2
 70
     6
  9
$SURFTYPE
 70
     6
  9
$SURFU
 70
     6
  9
$SURFV
 70
     6
  9
$UCSNAME
  2

  9
$UCSORG
 10
0.0
 20
0.0
 30
0.0
  9
$UCSXDIR
 10
1.0
 20
0.0
 30
0.0
  9
$UCSYDIR
 10
0.0
 20
1.0
 30
0.0
  9
$PUCSNAME
  2

  9
$PUCSORG
 10
0.0
 20
0.0
 30
0.0
  9
$PUCSXDIR
 10
1.0
 20
0.0
 30
0.0
  9
$PUCSYDIR
 10
0.0
 20
1.0
 30
0.0
  9
$USERI1
 70
     0
  9
$USERI2
 70
     0
  9
$USERI3
 70
     0
  9
$USERI4
 70
     0
  9
$USERI5
 70
     0
  9
$USERR1
 40
0.0
  9
$USERR2
 40
0.0
  9
$USERR3
 40
0.0
  9
$USERR4
 40
0.0
  9
$USERR5
 40
0.0
  9
$WORLDVIEW
 70
     1
  9
$SHADEDGE
 70
     3
  9
$SHADEDIF
 70
    70
  9
$TILEMODE
 70
     1
  9
$MAXACTVP
 70
    16
  9
$PINSBASE
 10
0.0
 20
0.0
 30
0.0
  9
$PLIMCHECK
 70
     0
  9
$PEXTMIN
 10
1.000000E+20
 20
1.000000E+20
 30
1.000000E+20
  9
$PEXTMAX
 10
-1.000000E+20
 20
-1.000000E+20
 30
-1.000000E+20
  9
$PLIMMIN
 10
0.0
 20
0.0
  9
$PLIMMAX
 10
12.0
 20
9.0
  9
$UNITMODE
 70
     0
  9
$VISRETAIN
 70
     0
  9
$PLINEGEN
 70
     1
  9
$PSLTSCALE
 70
     0
  9
$TREEDEPTH
 70
  3020
  9
$DWGCODEPAGE
  3
dos932
  0
ENDSEC
  0
SECTION
  2
TABLES
  0
TABLE
  2
VPORT
 70
     1
  0
VPORT
  2
*ACTIVE
 70
     0
 10
0.0
 20
0.0
 11
1.0
 21
1.0
 12
57.660795
 22
318.25
 13
0.0
 23
0.0
 14
1.0
 24
1.0
 15
0.0
 25
0.0
 16
0.0
 26
0.0
 36
1.0
 17
0.0
 27
0.0
 37
0.0
 40
642.865
 41
1.732051
 42
50.0
 43
0.0
 44
0.0
 50
0.0
 51
0.0
 71
     0
 72
   100
 73
     1
 74
     1
 75
     0
 76
     0
 77
     0
 78
     0
  0
ENDTAB
  0
TABLE
  2
LTYPE
 70
     3
  0
LTYPE
  2
CONTINUOUS
 70
    64
  3
Solid line
 72
    65
 73
     0
 40
0.0
  0
LTYPE
  2
CENTER
 70
    64
  3
Center ____ _ ____ _ ____ _ ____ _ ____ _ ____
 72
    65
 73
     4
 40
50.8
 49
31.75
 49
-6.35
 49
6.35
 49
-6.35
  0
LTYPE
  2
DASHED
 70
    64
  3
Dashed __ __ __ __ __ __ __ __ __ __ __ __ __ _
 72
    65
 73
     2
 40
19.05
 49
12.7
 49
-6.35
  0
ENDTAB
  0
TABLE
  2
LAYER
 70
     5
  0
LAYER
  2
0
 70
     0
 62
     7
  6
CONTINUOUS
  0
LAYER
  2
1
 70
     0
 62
     7
  6
CONTINUOUS
  0
LAYER
  2
30
 70
     0
 62
     7
  6
CONTINUOUS
  0
LAYER
  2
_CONSTR
 70
     0
 62
     5
  6
CONTINUOUS
  0
LAYER
  2
DEFPOINTS
 70
     0
 62
     7
  6
CONTINUOUS
  0
ENDTAB
  0
TABLE
  2
STYLE
 70
     4
  0
STYLE
  2
MX_NOTE_STANDARD
 70
     0
 40
0.0
 41
1.0
 50
0.0
 71
     0
 42
4.1656
  3
txt.shx
  4
extfont.shx
  0
STYLE
  2
MX_DIMTXSTY_1
 70
     0
 40
0.0
 41
0.937
 50
0.0
 71
     0
 42
4.1656
  3
txt.shx
  4
extfont.shx
  0
STYLE
  2
MX_DIMTXSTY_2
 70
     0
 40
0.0
 41
1.001
 50
0.0
 71
     0
 42
4.1656
  3
txt.shx
  4
extfont.shx
  0
STYLE
  2
MX_DIMTXSTY_3
 70
     0
 40
0.0
 41
0.905
 50
0.0
 71
     0
 42
4.1656
  3
txt.shx
  4
extfont.shx
  0
ENDTAB
  0
TABLE
  2
VIEW
 70
     0
  0
ENDTAB
  0
TABLE
  2
UCS
 70
     0
  0
ENDTAB
  0
TABLE
  2
APPID
 70
     1
  0
APPID
  2
ACAD
 70
     0
  0
ENDTAB
  0
TABLE
  2
DIMSTYLE
 70
     1
  0
DIMSTYLE
  2
MXDIMSTYLE
 70
     0
  3

  4

  5

  6

  7

 40
1.0
 41
2.5
 42
0.5
 43
3.75
 44
1.0
 45
0.0
 46
0.0
 47
0.0
 48
0.0
 71
     0
 72
     0
 73
     0
 74
     0
 75
     0
 76
     0
 77
     1
 78
     8
140
2.5
141
2.5
142
0.0
143
0.03937
144
1.0
145
0.0
146
1.0
147
1.0
170
     0
171
     4
172
     1
173
     0
174
     0
175
     0
176
     0
177
     0
178
     0
  0
ENDTAB
  0
ENDSEC
  0
SECTION
  2
BLOCKS
  0
BLOCK
  8
0
  5
24
  2
MS_1
 70
     0
 10
0.0
 20
0.0
 30
0.0
  3
MS_1
  0
LINE
  8
0
  6
CONTINUOUS
 62
    50
  5
25
 10
16.0
 20
-4.0
 30
0.0
 11
16.0
 21
0.0
 31
0.0
  0
LINE
  8
0
  6
CONTINUOUS
 62
    50
  5
26
 10
-52.0
 20
-75.0
 30
0.0
 11
-52.0
 21
-8.0
 31
0.0
  0
LINE
  8
0
  6
CONTINUOUS
 62
    50
  5
27
 10
-48.0
 20
-75.0
 30
0.0
 11
-48.0
 21
-9.0
 31
0.0
  0
ARC
  8
0
  6
CONTINUOUS
 62
    50
  5
28
 10
-44.0
 20
-8.0
 30
0.0
 40
8.0
 50
90.0
 51
180.0
  0
ARC
  8
0
  6
CONTINUOUS
 62
    50
  5
29
 10
-43.0
 20
-9.0
 30
0.0
 40
5.0
 50
90.0
 51
180.0
  0
LINE
  8
0
  6
CONTINUOUS
 62
    50
  5
2A
 10
-52.0
 20
-75.0
 30
0.0
 11
-48.0
 21
-75.0
 31
0.0
  0
DIMENSION
  8
0
  6
CONTINUOUS
 62
     7
  5
3E
  2
*D3
 10
-59.944042
 20
0.0
 30
0.0
 11
-59.944042
 21
-37.5
 31
0.0
 70
   128
  1
<>
 13
-52.0
 23
-75.0
 33
0.0
 14
-44.0
 24
0.0
 34
0.0
 50
90.0
  3
MXDIMSTYLE
1001
ACAD
1000
DSTYLE
1002
{
1070
     6
1000
_OPEN
1070
     7
1000
_OPEN
1070
    41
1040
3.0
1070
   173
1070
     1
1070
   271
1070
     2
1070
   284
1070
     8
1070
   340
1005
38
1070
   341
1005
30
1002
}
  0
DIMENSION
  8
0
  6
CONTINUOUS
 62
     7
  5
4B
  2
*D5
 10
16.0
 20
8.83002
 30
0.0
 11
-18.0
 21
8.83002
 31
0.0
 70
   128
  1
<>
 13
-52.0
 23
-8.000001
 33
0.0
 14
16.0
 24
0.0
 34
0.0
  3
MXDIMSTYLE
1001
ACAD
1000
DSTYLE
1002
{
1070
     6
1000
_OPEN
1070
     7
1000
_OPEN
1070
    41
1040
3.0
1070
   173
1070
     1
1070
   271
1070
     2
1070
   284
1070
     8
1070
   340
1005
38
1070
   341
1005
30
1002
}
  0
LINE
  8
0
  6
CONTINUOUS
 62
    50
  5
4C
 10
-43.0
 20
-4.0
 30
0.0
 11
16.0
 21
-4.0
 31
0.0
  0
LINE
  8
0
  6
CONTINUOUS
 62
    50
  5
4D
 10
-44.0
 20
0.0
 30
0.0
 11
16.0
 21
0.0
 31
0.0
  0
LINE
  8
0
  6
CENTER
 62
    50
  5
4F
 10
0.0
 20
-17.052608
 30
0.0
 11
0.0
 21
64.216455
 31
0.0
  0
ENDBLK
  8
0
  5
50
  0
BLOCK
  8
0
  5
51
  2
MS_2
 70
     0
 10
0.0
 20
0.0
 30
0.0
  3
MS_2
  0
LINE
  8
0
  6
CONTINUOUS
 62
    50
  5
52
 10
-52.0
 20
-16.0
 30
0.0
 11
0.0
 21
-16.0
 31
0.0
  0
LINE
  8
0
  6
CENTER
 62
    50
  5
53
 10
-57.0
 20
0.0
 30
0.0
 11
24.619177
 21
0.0
 31
0.0
  0
CIRCLE
  8
0
  6
CONTINUOUS
 62
    50
  5
54
 10
0.0
 20
0.0
 30
0.0
 40
9.0
  0
LINE
  8
0
  6
CONTINUOUS
 62
    50
  5
55
 10
-52.0
 20
16.0
 30
0.0
 11
0.0
 21
16.0
 31
0.0
  0
DIMENSION
  8
0
  6
CONTINUOUS
 62
     7
  5
61
  2
*D6
 10
0.0
 20
22.855183
 30
0.0
 11
-26.0
 21
22.855183
 31
0.0
 70
   128
  1
<>
 13
-52.0
 23
16.0
 33
0.0
 14
0.0
 24
16.741455
 34
0.0
  3
MXDIMSTYLE
1001
ACAD
1000
DSTYLE
1002
{
1070
     6
1000
_OPEN
1070
     7
1000
_OPEN
1070
    41
1040
3.0
1070
    76
1070
     1
1070
   173
1070
     1
1070
   271
1070
     2
1070
   284
1070
     8
1070
   340
1005
38
1070
   341
1005
30
1002
}
  0
DIMENSION
  8
0
  6
CONTINUOUS
 62
     7
  5
6D
  2
*D7
 10
-3.31936
 20
8.365516
 30
0.0
 11
23.556748
 21
-18.410484
 31
0.0
 70
   131
  1
<>
 15
3.31936
 25
-8.365516
 35
0.0
  3
MXDIMSTYLE
1001
ACAD
1000
DSTYLE
1002
{
1070
     7
1000
_OPEN
1070
    41
1040
3.0
1070
    73
1070
     1
1070
    74
1070
     1
1070
   141
1040
0.0
1070
   172
1070
     0
1070
   173
1070
     1
1070
   271
1070
     2
1070
   284
1070
     8
1070
   340
1005
68
1002
}
  0
LINE
  8
0
  6
CONTINUOUS
 62
    50
  5
6E
 10
-52.0
 20
-16.0
 30
0.0
 11
-52.0
 21
16.0
 31
0.0
  0
ARC
  8
0
  6
CONTINUOUS
 62
    50
  5
6F
 10
0.0
 20
0.0
 30
0.0
 40
16.0
 50
270.0
 51
90.0
  0
LINE
  8
0
  6
CENTER
 62
    50
  5
70
 10
0.0
 20
-57.052608
 30
0.0
 11
0.0
 21
24.216455
 31
0.0
  0
DIMENSION
  8
0
  6
CONTINUOUS
 62
     7
  5
7D
  2
*D8
 10
-59.944042
 20
16.0
 30
0.0
 11
-59.944042
 21
0.0
 31
0.0
 70
   128
  1
<>
 13
-52.0
 23
-16.0
 33
0.0
 14
-52.0
 24
16.0
 34
0.0
 50
90.0
  3
MXDIMSTYLE
1001
ACAD
1000
DSTYLE
1002
{
1070
     6
1000
_OPEN
1070
     7
1000
_OPEN
1070
    41
1040
3.0
1070
   173
1070
     1
1070
   271
1070
     2
1070
   284
1070
     8
1070
   340
1005
38
1070
   341
1005
30
1002
}
  0
ENDBLK
  8
0
  5
7E
  0
BLOCK
  8
0
  5
7F
  2
MS_3
 70
     0
 10
0.0
 20
0.0
 30
0.0
  3
MS_3
  0
LINE
  8
0
  6
CONTINUOUS
 62
    50
  5
80
 10
-16.0
 20
-59.0
 30
0.0
 11
-16.0
 21
0.0
 31
0.0
  0
LINE
  8
0
  6
CONTINUOUS
 62
    50
  5
81
 10
16.0
 20
-59.0
 30
0.0
 11
16.0
 21
0.0
 31
0.0
  0
CIRCLE
  8
0
  6
CONTINUOUS
 62
    50
  5
82
 10
0.0
 20
-25.0
 30
0.0
 40
4.5
  0
CIRCLE
  8
0
  6
CONTINUOUS
 62
    50
  5
83
 10
0.0
 20
-59.0
 30
0.0
 40
4.5
  0
ARC
  8
0
  6
CONTINUOUS
 62
    50
  5
84
 10
0.0
 20
-59.0
 30
0.0
 40
16.0
 50
180.0
 51
0.0
  0
LINE
  8
0
  6
CONTINUOUS
 62
    50
  5
85
 10
-16.0
 20
0.0
 30
0.0
 11
16.0
 21
0.0
 31
0.0
  0
LINE
  8
0
  6
CONTINUOUS
 62
    50
  5
86
 10
-16.0
 20
-4.0
 30
0.0
 11
16.0
 21
-4.0
 31
0.0
  0
LINE
  8
0
  6
CENTER
 62
    50
  5
87
 10
-10.321591
 20
-25.0
 30
0.0
 11
9.957318
 21
-25.0
 31
0.0
  0
LINE
  8
0
  6
CENTER
 62
    50
  5
88
 10
-10.0885
 20
-59.0
 30
0.0
 11
10.4235
 21
-59.0
 31
0.0
  0
DIMENSION
  8
0
  6
CONTINUOUS
 62
     7
  5
98
  2
*D9
 10
23.766225
 20
-4.0
 30
0.0
 11
23.766225
 21
-15.819906
 31
0.0
 70
   128
  1
t=<>
 13
15.999999
 23
0.0
 33
0.0
 14
15.999999
 24
-4.0
 34
0.0
 50
90.0
  3
MXDIMSTYLE
1001
ACAD
1000
DSTYLE
1002
{
1070
     6
1000
_OPEN
1070
     7
1000
_OPEN
1070
    41
1040
3.0
1070
   173
1070
     1
1070
   271
1070
     2
1070
   284
1070
     8
1070
   340
1005
38
1070
   341
1005
30
1002
}
  0
DIMENSION
  8
0
  6
CONTINUOUS
 62
     7
  5
A4
  2
*D10
 10
-1.983076
 20
-54.960519
 30
0.0
 11
25.135542
 21
-84.553631
 31
0.0
 70
   131
  1
2-<>
 15
1.983076
 25
-63.039481
 35
0.0
  3
MXDIMSTYLE
1001
ACAD
1000
DSTYLE
1002
{
1070
     7
1000
_OPEN
1070
    41
1040
3.0
1070
    73
1070
     1
1070
    74
1070
     1
1070
   141
1040
0.0
1070
   172
1070
     0
1070
   173
1070
     1
1070
   271
1070
     2
1070
   284
1070
     8
1070
   340
1005
9F
1002
}
  0
DIMENSION
  8
0
  6
CONTINUOUS
 62
     7
  5
B1
  2
*D11
 10
31.611553
 20
-59.0
 30
0.0
 11
31.611553
 21
-42.0
 31
0.0
 70
   128
  1
<>
 13
9.957321
 23
-25.0
 33
0.0
 14
10.423501
 24
-59.0
 34
0.0
 50
90.0
  3
MXDIMSTYLE
1001
ACAD
1000
DSTYLE
1002
{
1070
     6
1000
_OPEN
1070
     7
1000
_OPEN
1070
    41
1040
3.0
1070
   173
1070
     1
1070
   271
1070
     2
1070
   284
1070
     8
1070
   340
1005
38
1070
   341
1005
30
1002
}
  0
DIMENSION
  8
0
  6
CONTINUOUS
 62
     7
  5
BE
  2
*D12
 10
31.611553
 20
-25.0
 30
0.0
 11
31.611553
 21
-12.5
 31
0.0
 70
   128
  1
<>
 13
15.999999
 23
0.0
 33
0.0
 14
9.957321
 24
-25.0
 34
0.0
 50
90.0
  3
MXDIMSTYLE
1001
ACAD
1000
DSTYLE
1002
{
1070
     6
1000
_OPEN
1070
     7
1000
_OPEN
1070
    41
1040
3.0
1070
   173
1070
     1
1070
   271
1070
     2
1070
   284
1070
     8
1070
   340
1005
38
1070
   341
1005
30
1002
}
  0
LINE
  8
0
  6
CENTER
 62
    50
  5
BF
 10
0.0
 20
-80.0
 30
0.0
 11
0.0
 21
5.0
 31
0.0
  0
ENDBLK
  8
0
  5
C0
  0
BLOCK
  8
0
  6
BYBLOCK
 62
     0
  5
2C
  2
*D3
 70
     1
 10
0.0
 20
0.0
 30
0.0
  3
*D3
  0
LINE
  8
0
  6
CONTINUOUS
 62
     7
  5
2D
 10
-59.944042
 20
-75.0
 30
0.0
 11
-59.944042
 21
0.0
 31
0.0
  0
LINE
  8
0
  6
CONTINUOUS
 62
     7
  5
2E
 10
-52.5
 20
-75.0
 30
0.0
 11
-60.944042
 21
-75.0
 31
0.0
  0
LINE
  8
0
  6
CONTINUOUS
 62
     7
  5
2F
 10
-44.5
 20
0.0
 30
0.0
 11
-60.944042
 21
0.0
 31
0.0
  0
INSERT
  8
0
  6
CONTINUOUS
 62
     7
  5
36
  2
_OPEN
 10
-59.944042
 20
-75.0
 30
0.0
 41
3.0
 42
3.0
 50
270.0
 43
3.0
  0
INSERT
  8
0
  6
CONTINUOUS
 62
     7
  5
37
  2
_OPEN
 10
-59.944042
 20
0.0
 30
0.0
 41
3.0
 42
3.0
 50
90.0
 43
3.0
  0
TEXT
  8
0
  6
CONTINUOUS
 62
   255
  5
39
 10
-60.944042
 20
-39.427083
 30
0.0
 40
2.5
  1
75
 50
90.0
  7
MX_DIMTXSTY_1
 11
-62.194042
 21
-39.427083
 31
0.0
 73
     2
  0
POINT
  8
DEFPOINTS
  6
CONTINUOUS
 62
     0
  5
3A
 10
-52.0
 20
-75.0
 30
0.0
  0
POINT
  8
DEFPOINTS
  6
CONTINUOUS
 62
     0
  5
3B
 10
-44.0
 20
0.0
 30
0.0
  0
POINT
  8
DEFPOINTS
  6
CONTINUOUS
 62
     0
  5
3C
 10
-59.944042
 20
0.0
 30
0.0
  0
ENDBLK
  8
0
  6
BYBLOCK
 62
     0
  5
3D
  0
BLOCK
  8
0
  6
BYBLOCK
 62
     0
  5
31
  2
_OPEN
 70
     2
 10
0.0
 20
0.0
 30
0.0
  3
_OPEN
  0
LINE
  8
0
  6
BYBLOCK
 62
     0
  5
32
 10
-1.0
 20
0.166667
 30
0.0
 11
0.0
 21
0.0
 31
0.0
  0
LINE
  8
0
  6
BYBLOCK
 62
     0
  5
33
 10
0.0
 20
0.0
 30
0.0
 11
-1.0
 21
-0.166667
 31
0.0
  0
LINE
  8
0
  6
BYBLOCK
 62
     0
  5
34
 10
0.0
 20
0.0
 30
0.0
 11
-1.0
 21
0.0
 31
0.0
  0
ENDBLK
  8
0
  6
BYBLOCK
 62
     0
  5
35
  0
BLOCK
  8
0
  6
BYBLOCK
 62
     0
  5
40
  2
*D5
 70
     1
 10
0.0
 20
0.0
 30
0.0
  3
*D5
  0
LINE
  8
0
  6
CONTINUOUS
 62
     7
  5
41
 10
-52.0
 20
8.83002
 30
0.0
 11
16.0
 21
8.83002
 31
0.0
  0
LINE
  8
0
  6
CONTINUOUS
 62
     7
  5
42
 10
-52.0
 20
-7.500001
 30
0.0
 11
-52.0
 21
9.83002
 31
0.0
  0
LINE
  8
0
  6
CONTINUOUS
 62
     7
  5
43
 10
16.0
 20
0.5
 30
0.0
 11
16.0
 21
9.83002
 31
0.0
  0
INSERT
  8
0
  6
CONTINUOUS
 62
     7
  5
44
  2
_OPEN
 10
-52.0
 20
8.83002
 30
0.0
 41
3.0
 42
3.0
 50
180.0
 43
3.0
  0
INSERT
  8
0
  6
CONTINUOUS
 62
     7
  5
45
  2
_OPEN
 10
16.0
 20
8.83002
 30
0.0
 41
3.0
 42
3.0
 43
3.0
  0
TEXT
  8
0
  6
CONTINUOUS
 62
   255
  5
46
 10
-19.927083
 20
9.83002
 30
0.0
 40
2.5
  1
68
  7
MX_DIMTXSTY_1
 11
-19.927083
 21
11.08002
 31
0.0
 73
     2
  0
POINT
  8
DEFPOINTS
  6
CONTINUOUS
 62
     0
  5
47
 10
-52.0
 20
-8.000001
 30
0.0
  0
POINT
  8
DEFPOINTS
  6
CONTINUOUS
 62
     0
  5
48
 10
16.0
 20
0.0
 30
0.0
  0
POINT
  8
DEFPOINTS
  6
CONTINUOUS
 62
     0
  5
49
 10
16.0
 20
8.83002
 30
0.0
  0
ENDBLK
  8
0
  6
BYBLOCK
 62
     0
  5
4A
  0
BLOCK
  8
0
  6
BYBLOCK
 62
     0
  5
57
  2
*D6
 70
     1
 10
0.0
 20
0.0
 30
0.0
  3
*D6
  0
LINE
  8
0
  6
CONTINUOUS
 62
     7
  5
58
 10
-52.0
 20
22.855183
 30
0.0
 11
0.0
 21
22.855183
 31
0.0
  0
LINE
  8
0
  6
CONTINUOUS
 62
     7
  5
59
 10
-52.0
 20
16.5
 30
0.0
 11
-52.0
 21
23.855183
 31
0.0
  0
INSERT
  8
0
  6
CONTINUOUS
 62
     7
  5
5A
  2
_OPEN
 10
-52.0
 20
22.855183
 30
0.0
 41
3.0
 42
3.0
 50
180.0
 43
3.0
  0
INSERT
  8
0
  6
CONTINUOUS
 62
     7
  5
5B
  2
_OPEN
 10
0.0
 20
22.855183
 30
0.0
 41
3.0
 42
3.0
 43
3.0
  0
TEXT
  8
0
  6
CONTINUOUS
 62
   255
  5
5C
 10
-27.927083
 20
23.855183
 30
0.0
 40
2.5
  1
52
  7
MX_DIMTXSTY_1
 11
-27.927083
 21
25.105183
 31
0.0
 73
     2
  0
POINT
  8
DEFPOINTS
  6
CONTINUOUS
 62
     0
  5
5D
 10
-52.0
 20
16.0
 30
0.0
  0
POINT
  8
DEFPOINTS
  6
CONTINUOUS
 62
     0
  5
5E
 10
0.0
 20
16.741455
 30
0.0
  0
POINT
  8
DEFPOINTS
  6
CONTINUOUS
 62
     0
  5
5F
 10
0.0
 20
22.855183
 30
0.0
  0
ENDBLK
  8
0
  6
BYBLOCK
 62
     0
  5
60
  0
BLOCK
  8
0
  6
BYBLOCK
 62
     0
  5
63
  2
*D7
 70
     1
 10
0.0
 20
0.0
 30
0.0
  3
*D7
  0
LINE
  8
0
  6
CONTINUOUS
 62
     7
  5
64
 10
3.31936
 20
-8.365516
 30
0.0
 11
7.305111
 21
-18.410484
 31
0.0
  0
LINE
  8
0
  6
CONTINUOUS
 62
     7
  5
65
 10
7.305111
 20
-18.410484
 30
0.0
 11
27.072373
 21
-18.410484
 31
0.0
  0
LINE
  8
0
  6
CONTINUOUS
 62
     7
  5
66
 10
3.31936
 20
-8.365516
 30
0.0
 11
4.794631
 21
-12.083522
 31
0.0
  0
INSERT
  8
0
  6
CONTINUOUS
 62
     7
  5
67
  2
_OPEN
 10
3.31936
 20
-8.365516
 30
0.0
 41
3.0
 42
3.0
 50
111.642724
 43
3.0
  0
TEXT
  8
0
  6
CONTINUOUS
 62
   255
  5
69
 10
20.457789
 20
-17.410484
 30
0.0
 40
2.5
  1
%%c18
  7
MX_DIMTXSTY_2
 11
20.457789
 21
-16.160484
 31
0.0
 73
     2
  0
POINT
  8
DEFPOINTS
  6
CONTINUOUS
 62
     0
  5
6A
 10
3.31936
 20
-8.365516
 30
0.0
  0
POINT
  8
DEFPOINTS
  6
CONTINUOUS
 62
     0
  5
6B
 10
-3.31936
 20
8.365516
 30
0.0
  0
ENDBLK
  8
0
  6
BYBLOCK
 62
     0
  5
6C
  0
BLOCK
  8
0
  6
BYBLOCK
 62
     0
  5
72
  2
*D8
 70
     1
 10
0.0
 20
0.0
 30
0.0
  3
*D8
  0
LINE
  8
0
  6
CONTINUOUS
 62
     7
  5
73
 10
-59.944042
 20
-16.0
 30
0.0
 11
-59.944042
 21
16.0
 31
0.0
  0
LINE
  8
0
  6
CONTINUOUS
 62
     7
  5
74
 10
-52.5
 20
-16.0
 30
0.0
 11
-60.944042
 21
-16.0
 31
0.0
  0
LINE
  8
0
  6
CONTINUOUS
 62
     7
  5
75
 10
-52.5
 20
16.0
 30
0.0
 11
-60.944042
 21
16.0
 31
0.0
  0
INSERT
  8
0
  6
CONTINUOUS
 62
     7
  5
76
  2
_OPEN
 10
-59.944042
 20
-16.0
 30
0.0
 41
3.0
 42
3.0
 50
270.0
 43
3.0
  0
INSERT
  8
0
  6
CONTINUOUS
 62
     7
  5
77
  2
_OPEN
 10
-59.944042
 20
16.0
 30
0.0
 41
3.0
 42
3.0
 50
90.0
 43
3.0
  0
TEXT
  8
0
  6
CONTINUOUS
 62
   255
  5
78
 10
-60.944042
 20
-1.927083
 30
0.0
 40
2.5
  1
32
 50
90.0
  7
MX_DIMTXSTY_1
 11
-62.194042
 21
-1.927083
 31
0.0
 73
     2
  0
POINT
  8
DEFPOINTS
  6
CONTINUOUS
 62
     0
  5
79
 10
-52.0
 20
-16.0
 30
0.0
  0
POINT
  8
DEFPOINTS
  6
CONTINUOUS
 62
     0
  5
7A
 10
-52.0
 20
16.0
 30
0.0
  0
POINT
  8
DEFPOINTS
  6
CONTINUOUS
 62
     0
  5
7B
 10
-59.944042
 20
16.0
 30
0.0
  0
ENDBLK
  8
0
  6
BYBLOCK
 62
     0
  5
7C
  0
BLOCK
  8
0
  6
BYBLOCK
 62
     0
  5
8A
  2
*D9
 70
     1
 10
0.0
 20
0.0
 30
0.0
  3
*D9
  0
LINE
  8
0
  6
CONTINUOUS
 62
     7
  5
8B
 10
23.766225
 20
0.0
 30
0.0
 11
23.766225
 21
-4.0
 31
0.0
  0
LINE
  8
0
  6
CONTINUOUS
 62
     7
  5
8C
 10
23.766225
 20
-4.0
 30
0.0
 11
23.766225
 21
-19.335531
 31
0.0
  0
LINE
  8
0
  6
CONTINUOUS
 62
     7
  5
8D
 10
16.499999
 20
0.0
 30
0.0
 11
24.766225
 21
0.0
 31
0.0
  0
LINE
  8
0
  6
CONTINUOUS
 62
     7
  5
8E
 10
16.499999
 20
-4.0
 30
0.0
 11
24.766225
 21
-4.0
 31
0.0
  0
LINE
  8
0
  6
CONTINUOUS
 62
     7
  5
8F
 10
23.766225
 20
0.0
 30
0.0
 11
23.766225
 21
4.0
 31
0.0
  0
LINE
  8
0
  6
CONTINUOUS
 62
     7
  5
90
 10
23.766225
 20
-4.0
 30
0.0
 11
23.766225
 21
-8.0
 31
0.0
  0
INSERT
  8
0
  6
CONTINUOUS
 62
     7
  5
91
  2
_OPEN
 10
23.766225
 20
0.0
 30
0.0
 41
3.0
 42
3.0
 50
270.0
 43
3.0
  0
INSERT
  8
0
  6
CONTINUOUS
 62
     7
  5
92
  2
_OPEN
 10
23.766225
 20
-4.0
 30
0.0
 41
3.0
 42
3.0
 50
90.0
 43
3.0
  0
TEXT
  8
0
  6
CONTINUOUS
 62
   255
  5
93
 10
22.766225
 20
-18.918865
 30
0.0
 40
2.5
  1
t=4
 50
90.0
  7
MX_DIMTXSTY_1
 11
21.516225
 21
-18.918865
 31
0.0
 73
     2
  0
POINT
  8
DEFPOINTS
  6
CONTINUOUS
 62
     0
  5
94
 10
15.999999
 20
0.0
 30
0.0
  0
POINT
  8
DEFPOINTS
  6
CONTINUOUS
 62
     0
  5
95
 10
15.999999
 20
-4.0
 30
0.0
  0
POINT
  8
DEFPOINTS
  6
CONTINUOUS
 62
     0
  5
96
 10
23.766225
 20
-4.0
 30
0.0
  0
ENDBLK
  8
0
  6
BYBLOCK
 62
     0
  5
97
  0
BLOCK
  8
0
  6
BYBLOCK
 62
     0
  5
9A
  2
*D10
 70
     1
 10
0.0
 20
0.0
 30
0.0
  3
*D10
  0
LINE
  8
0
  6
CONTINUOUS
 62
     7
  5
9B
 10
1.983076
 20
-63.039481
 30
0.0
 11
12.544878
 21
-84.553631
 31
0.0
  0
LINE
  8
0
  6
CONTINUOUS
 62
     7
  5
9C
 10
12.544878
 20
-84.553631
 30
0.0
 11
29.823042
 21
-84.553631
 31
0.0
  0
LINE
  8
0
  6
CONTINUOUS
 62
     7
  5
9D
 10
1.983076
 20
-63.039481
 30
0.0
 11
3.745811
 21
-66.630131
 31
0.0
  0
INSERT
  8
0
  6
CONTINUOUS
 62
     7
  5
9E
  2
_OPEN
 10
1.983076
 20
-63.039481
 30
0.0
 41
3.0
 42
3.0
 50
116.147506
 43
3.0
  0
TEXT
  8
0
  6
CONTINUOUS
 62
   255
  5
A0
 10
20.864708
 20
-83.553631
 30
0.0
 40
2.5
  1
2-%%c9
  7
MX_DIMTXSTY_3
 11
20.864708
 21
-82.303631
 31
0.0
 73
     2
  0
POINT
  8
DEFPOINTS
  6
CONTINUOUS
 62
     0
  5
A1
 10
1.983076
 20
-63.039481
 30
0.0
  0
POINT
  8
DEFPOINTS
  6
CONTINUOUS
 62
     0
  5
A2
 10
-1.983076
 20
-54.960519
 30
0.0
  0
ENDBLK
  8
0
  6
BYBLOCK
 62
     0
  5
A3
  0
BLOCK
  8
0
  6
BYBLOCK
 62
     0
  5
A6
  2
*D11
 70
     1
 10
0.0
 20
0.0
 30
0.0
  3
*D11
  0
LINE
  8
0
  6
CONTINUOUS
 62
     7
  5
A7
 10
31.611553
 20
-25.0
 30
0.0
 11
31.611553
 21
-59.0
 31
0.0
  0
LINE
  8
0
  6
CONTINUOUS
 62
     7
  5
A8
 10
10.457321
 20
-25.0
 30
0.0
 11
32.611553
 21
-25.0
 31
0.0
  0
LINE
  8
0
  6
CONTINUOUS
 62
     7
  5
A9
 10
10.923501
 20
-59.0
 30
0.0
 11
32.611553
 21
-59.0
 31
0.0
  0
INSERT
  8
0
  6
CONTINUOUS
 62
     7
  5
AA
  2
_OPEN
 10
31.611553
 20
-25.0
 30
0.0
 41
3.0
 42
3.0
 50
90.0
 43
3.0
  0
INSERT
  8
0
  6
CONTINUOUS
 62
     7
  5
AB
  2
_OPEN
 10
31.611553
 20
-59.0
 30
0.0
 41
3.0
 42
3.0
 50
270.0
 43
3.0
  0
TEXT
  8
0
  6
CONTINUOUS
 62
   255
  5
AC
 10
30.611553
 20
-43.927083
 30
0.0
 40
2.5
  1
34
 50
90.0
  7
MX_DIMTXSTY_1
 11
29.361553
 21
-43.927083
 31
0.0
 73
     2
  0
POINT
  8
DEFPOINTS
  6
CONTINUOUS
 62
     0
  5
AD
 10
9.957321
 20
-25.0
 30
0.0
  0
POINT
  8
DEFPOINTS
  6
CONTINUOUS
 62
     0
  5
AE
 10
10.423501
 20
-59.0
 30
0.0
  0
POINT
  8
DEFPOINTS
  6
CONTINUOUS
 62
     0
  5
AF
 10
31.611553
 20
-59.0
 30
0.0
  0
ENDBLK
  8
0
  6
BYBLOCK
 62
     0
  5
B0
  0
BLOCK
  8
0
  6
BYBLOCK
 62
     0
  5
B3
  2
*D12
 70
     1
 10
0.0
 20
0.0
 30
0.0
  3
*D12
  0
LINE
  8
0
  6
CONTINUOUS
 62
     7
  5
B4
 10
31.611553
 20
0.0
 30
0.0
 11
31.611553
 21
-25.0
 31
0.0
  0
LINE
  8
0
  6
CONTINUOUS
 62
     7
  5
B5
 10
16.499999
 20
0.0
 30
0.0
 11
32.611553
 21
0.0
 31
0.0
  0
LINE
  8
0
  6
CONTINUOUS
 62
     7
  5
B6
 10
10.457321
 20
-25.0
 30
0.0
 11
32.611553
 21
-25.0
 31
0.0
  0
INSERT
  8
0
  6
CONTINUOUS
 62
     7
  5
B7
  2
_OPEN
 10
31.611553
 20
0.0
 30
0.0
 41
3.0
 42
3.0
 50
90.0
 43
3.0
  0
INSERT
  8
0
  6
CONTINUOUS
 62
     7
  5
B8
  2
_OPEN
 10
31.611553
 20
-25.0
 30
0.0
 41
3.0
 42
3.0
 50
270.0
 43
3.0
  0
TEXT
  8
0
  6
CONTINUOUS
 62
   255
  5
B9
 10
30.611553
 20
-14.427083
 30
0.0
 40
2.5
  1
25
 50
90.0
  7
MX_DIMTXSTY_1
 11
29.361553
 21
-14.427083
 31
0.0
 73
     2
  0
POINT
  8
DEFPOINTS
  6
CONTINUOUS
 62
     0
  5
BA
 10
15.999999
 20
0.0
 30
0.0
  0
POINT
  8
DEFPOINTS
  6
CONTINUOUS
 62
     0
  5
BB
 10
9.957321
 20
-25.0
 30
0.0
  0
POINT
  8
DEFPOINTS
  6
CONTINUOUS
 62
     0
  5
BC
 10
31.611553
 20
-25.0
 30
0.0
  0
ENDBLK
  8
0
  6
BYBLOCK
 62
     0
  5
BD
  0
ENDSEC
  0
SECTION
  2
ENTITIES
  0
LINE
  8
0
  6
CONTINUOUS
 62
     3
  5
C1
 10
45.0
 20
624.644803
 30
0.0
 11
45.0
 21
636.5
 31
0.0
  0
LINE
  8
0
  6
CONTINUOUS
 62
     3
  5
C2
 10
77.0
 20
624.249224
 30
0.0
 11
77.0
 21
636.5
 31
0.0
  0
LINE
  8
0
  6
CONTINUOUS
 62
     3
  5
C3
 10
77.0
 20
636.5
 30
0.0
 11
45.0
 21
636.5
 31
0.0
  0
CIRCLE
  8
0
  6
CONTINUOUS
 62
     3
  5
C4
 10
60.5
 20
584.0
 30
0.0
 40
43.5
  0
CIRCLE
  8
0
  6
CONTINUOUS
 62
     3
  5
C5
 10
60.5
 20
584.0
 30
0.0
 40
42.0
  0
POINT
  8
0
  6
CONTINUOUS
 62
    80
  5
C6
 10
0.0
 20
0.0
 30
0.0
  0
LINE
  8
0
  6
CONTINUOUS
 62
    50
  5
C7
 10
44.0
 20
60.0
 30
0.0
 11
44.0
 21
119.0
 31
0.0
  0
LINE
  8
0
  6
CENTER
 62
    50
  5
C8
 10
115.0885
 20
60.0
 30
0.0
 11
49.5765
 21
60.0
 31
0.0
  0
LINE
  8
0
  6
CENTER
 62
    50
  5
C9
 10
115.321591
 20
94.0
 30
0.0
 11
50.042682
 21
94.0
 31
0.0
  0
LINE
  8
0
  6
CONTINUOUS
 62
    50
  5
CA
 10
76.0
 20
115.0
 30
0.0
 11
44.0
 21
115.0
 31
0.0
  0
LINE
  8
0
  6
CONTINUOUS
 62
    50
  5
CB
 10
76.0
 20
119.0
 30
0.0
 11
44.0
 21
119.0
 31
0.0
  0
ARC
  8
0
  6
CONTINUOUS
 62
    50
  5
CC
 10
60.0
 20
60.0
 30
0.0
 40
16.0
 50
180.0
 51
0.0
  0
CIRCLE
  8
0
  6
CONTINUOUS
 62
    50
  5
CD
 10
60.0
 20
60.0
 30
0.0
 40
4.5
  0
ARC
  8
0
  6
CONTINUOUS
 62
    50
  5
CE
 10
60.0
 20
94.0
 30
0.0
 40
4.5
 50
180.0
 51
0.0
  0
LINE
  8
0
  6
CONTINUOUS
 62
    50
  5
CF
 10
76.0
 20
60.0
 30
0.0
 11
76.0
 21
119.0
 31
0.0
  0
LINE
  8
0
  6
DASHED
 62
    50
  5
D1
 10
104.0
 20
119.0
 30
0.0
 11
76.0
 21
119.0
 31
0.0
  0
LINE
  8
0
  6
DASHED
 62
    50
  5
D2
 10
103.0
 20
115.0
 30
0.0
 11
76.0
 21
115.0
 31
0.0
  0
LINE
  8
0
  6
DASHED
 62
    50
  5
D3
 10
112.0
 20
44.0
 30
0.0
 11
108.0
 21
44.0
 31
0.0
  0
ARC
  8
0
  6
DASHED
 62
    50
  5
D4
 10
103.0
 20
110.0
 30
0.0
 40
5.0
 50
0.0
 51
90.0
  0
ARC
  8
0
  6
DASHED
 62
    50
  5
D5
 10
104.0
 20
111.0
 30
0.0
 40
8.0
 50
0.0
 51
90.0
  0
LINE
  8
0
  6
DASHED
 62
    50
  5
D6
 10
108.0
 20
44.0
 30
0.0
 11
108.0
 21
110.0
 31
0.0
  0
LINE
  8
0
  6
DASHED
 62
    50
  5
D7
 10
112.0
 20
44.0
 30
0.0
 11
112.0
 21
111.0
 31
0.0
  0
LINE
  8
0
  6
CONTINUOUS
 62
     3
  5
D8
 10
51.35
 20
331.0
 30
0.0
 11
51.35
 21
135.0
 31
0.0
  0
LINE
  8
0
  6
CONTINUOUS
 62
     3
  5
D9
 10
68.65
 20
331.0
 30
0.0
 11
68.65
 21
135.0
 31
0.0
  0
LINE
  8
0
  6
CONTINUOUS
 62
     3
  5
DA
 10
46.0
 20
119.0
 30
0.0
 11
46.0
 21
121.0
 31
0.0
  0
LINE
  8
0
  6
CONTINUOUS
 62
     3
  5
DB
 10
74.0
 20
119.0
 30
0.0
 11
74.0
 21
121.0
 31
0.0
  0
LINE
  8
0
  6
CONTINUOUS
 62
     3
  5
DC
 10
75.0
 20
121.0
 30
0.0
 11
45.0
 21
121.0
 31
0.0
  0
ARC
  8
0
  6
CONTINUOUS
 62
     3
  5
DD
 10
53.0
 20
95.0
 30
0.0
 40
1.0
 50
180.0
 51
270.0
  0
ARC
  8
0
  6
CONTINUOUS
 62
     3
  5
DE
 10
67.0
 20
95.0
 30
0.0
 40
1.0
 50
270.0
 51
0.0
  0
ARC
  8
0
  6
CONTINUOUS
 62
     3
  5
DF
 10
48.375
 20
107.246094
 30
0.0
 40
4.753906
 50
35.400856
 51
144.599144
  0
ARC
  8
0
  6
CONTINUOUS
 62
     3
  5
E0
 10
60.0
 20
95.984375
 30
0.0
 40
16.015625
 50
61.059412
 51
118.940588
  0
ARC
  8
0
  6
CONTINUOUS
 62
     3
  5
E1
 10
71.625
 20
107.246094
 30
0.0
 40
4.753906
 50
35.400856
 51
144.599144
  0
ARC
  8
0
  6
CONTINUOUS
 62
     3
  5
E2
 10
71.625
 20
105.753906
 30
0.0
 40
4.753906
 50
215.400856
 51
324.599144
  0
ARC
  8
0
  6
CONTINUOUS
 62
     3
  5
E3
 10
60.0
 20
117.015625
 30
0.0
 40
16.015625
 50
241.059412
 51
298.940588
  0
ARC
  8
0
  6
CONTINUOUS
 62
     3
  5
E4
 10
48.375
 20
105.753906
 30
0.0
 40
4.753906
 50
215.400856
 51
324.599144
  0
ARC
  8
0
  6
CONTINUOUS
 62
     3
  5
E5
 10
71.625
 20
128.753906
 30
0.0
 40
4.753906
 50
215.400856
 51
324.599144
  0
ARC
  8
0
  6
CONTINUOUS
 62
     3
  5
E6
 10
60.0
 20
140.015625
 30
0.0
 40
16.015625
 50
241.059412
 51
298.940588
  0
ARC
  8
0
  6
CONTINUOUS
 62
     3
  5
E7
 10
48.375
 20
128.753906
 30
0.0
 40
4.753906
 50
215.400856
 51
324.599144
  0
ARC
  8
0
  6
CONTINUOUS
 62
     3
  5
E8
 10
48.375
 20
130.246094
 30
0.0
 40
4.753906
 50
35.400856
 51
144.599144
  0
ARC
  8
0
  6
CONTINUOUS
 62
     3
  5
E9
 10
71.625
 20
130.246094
 30
0.0
 40
4.753906
 50
35.400856
 51
144.599144
  0
ARC
  8
0
  6
CONTINUOUS
 62
     3
  5
EA
 10
60.0
 20
118.984375
 30
0.0
 40
16.015625
 50
61.059412
 51
118.940588
  0
LINE
  8
0
  6
CONTINUOUS
 62
     3
  5
EB
 10
52.0
 20
95.0
 30
0.0
 11
52.0
 21
96.0
 31
0.0
  0
LINE
  8
0
  6
CONTINUOUS
 62
     3
  5
EC
 10
52.0
 20
97.0
 30
0.0
 11
52.0
 21
98.0
 31
0.0
  0
LINE
  8
0
  6
CONTINUOUS
 62
     3
  5
ED
 10
68.0
 20
97.0
 30
0.0
 11
68.0
 21
98.0
 31
0.0
  0
LINE
  8
0
  6
CONTINUOUS
 62
     3
  5
EE
 10
52.0
 20
96.0
 30
0.0
 11
68.0
 21
96.0
 31
0.0
  0
LINE
  8
0
  6
CONTINUOUS
 62
     3
  5
EF
 10
52.0
 20
96.0
 30
0.0
 11
50.9
 21
96.7
 31
0.0
  0
LINE
  8
0
  6
CONTINUOUS
 62
     3
  5
F0
 10
68.0
 20
96.0
 30
0.0
 11
69.1
 21
96.7
 31
0.0
  0
LINE
  8
0
  6
CONTINUOUS
 62
     3
  5
F1
 10
53.0
 20
94.0
 30
0.0
 11
67.0
 21
94.0
 31
0.0
  0
LINE
  8
0
  6
CONTINUOUS
 62
     3
  5
F2
 10
69.1
 20
96.7
 30
0.0
 11
69.1
 21
97.0
 31
0.0
  0
LINE
  8
0
  6
CONTINUOUS
 62
     3
  5
F3
 10
50.9
 20
96.7
 30
0.0
 11
69.1
 21
96.7
 31
0.0
  0
LINE
  8
0
  6
CONTINUOUS
 62
     3
  5
F4
 10
50.9
 20
96.7
 30
0.0
 11
50.9
 21
97.0
 31
0.0
  0
LINE
  8
0
  6
CONTINUOUS
 62
     3
  5
F5
 10
68.0
 20
95.0
 30
0.0
 11
68.0
 21
96.0
 31
0.0
  0
LINE
  8
0
  6
CONTINUOUS
 62
     3
  5
F6
 10
50.9
 20
97.0
 30
0.0
 11
69.1
 21
97.0
 31
0.0
  0
LINE
  8
0
  6
CONTINUOUS
 62
     3
  5
F7
 10
53.35
 20
98.0
 30
0.0
 11
51.35
 21
100.0
 31
0.0
  0
LINE
  8
0
  6
CONTINUOUS
 62
     3
  5
F8
 10
66.65
 20
98.0
 30
0.0
 11
68.65
 21
100.0
 31
0.0
  0
LINE
  8
0
  6
CONTINUOUS
 62
     3
  5
F9
 10
53.35
 20
101.0
 30
0.0
 11
53.35
 21
98.0
 31
0.0
  0
LINE
  8
0
  6
CONTINUOUS
 62
     3
  5
FA
 10
66.65
 20
101.0
 30
0.0
 11
66.65
 21
98.0
 31
0.0
  0
LINE
  8
0
  6
CONTINUOUS
 62
     3
  5
FB
 10
51.35
 20
101.0
 30
0.0
 11
51.35
 21
100.0
 31
0.0
  0
LINE
  8
0
  6
CONTINUOUS
 62
     3
  5
FC
 10
68.65
 20
101.0
 30
0.0
 11
68.65
 21
100.0
 31
0.0
  0
LINE
  8
0
  6
CONTINUOUS
 62
     3
  5
FD
 10
68.0
 20
98.0
 30
0.0
 11
52.0
 21
98.0
 31
0.0
  0
LINE
  8
0
  6
CONTINUOUS
 62
     3
  5
FE
 10
68.65
 20
100.0
 30
0.0
 11
51.35
 21
100.0
 31
0.0
  0
LINE
  8
0
  6
CONTINUOUS
 62
     3
  5
FF
 10
75.5
 20
110.094132
 30
0.0
 11
73.594132
 21
112.0
 31
0.0
  0
LINE
  8
0
  6
CONTINUOUS
 62
     3
  5
100
 10
52.25
 20
103.0
 30
0.0
 11
52.25
 21
110.0
 31
0.0
  0
LINE
  8
0
  6
CONTINUOUS
 62
     3
  5
101
 10
73.594132
 20
101.0
 30
0.0
 11
46.405868
 21
101.0
 31
0.0
  0
LINE
  8
0
  6
CONTINUOUS
 62
     3
  5
102
 10
44.5
 20
110.094132
 30
0.0
 11
46.405868
 21
112.0
 31
0.0
  0
LINE
  8
0
  6
CONTINUOUS
 62
     3
  5
103
 10
44.5
 20
102.905868
 30
0.0
 11
46.405868
 21
101.0
 31
0.0
  0
LINE
  8
0
  6
CONTINUOUS
 62
     3
  5
104
 10
75.5
 20
102.905868
 30
0.0
 11
73.594132
 21
101.0
 31
0.0
  0
LINE
  8
0
  6
CONTINUOUS
 62
     3
  5
105
 10
44.5
 20
102.905868
 30
0.0
 11
44.5
 21
110.094132
 31
0.0
  0
LINE
  8
0
  6
CONTINUOUS
 62
     3
  5
106
 10
75.5
 20
102.905868
 30
0.0
 11
75.5
 21
110.094132
 31
0.0
  0
LINE
  8
0
  6
CONTINUOUS
 62
     3
  5
107
 10
67.75
 20
103.0
 30
0.0
 11
67.75
 21
110.0
 31
0.0
  0
LINE
  8
0
  6
CONTINUOUS
 62
     3
  5
108
 10
44.5
 20
125.905868
 30
0.0
 11
46.405868
 21
124.0
 31
0.0
  0
LINE
  8
0
  6
CONTINUOUS
 62
     3
  5
109
 10
75.5
 20
125.905868
 30
0.0
 11
73.594132
 21
124.0
 31
0.0
  0
LINE
  8
0
  6
CONTINUOUS
 62
     3
  5
10A
 10
44.5
 20
133.094132
 30
0.0
 11
46.405868
 21
135.0
 31
0.0
  0
LINE
  8
0
  6
CONTINUOUS
 62
     3
  5
10B
 10
75.5
 20
133.094132
 30
0.0
 11
73.594132
 21
135.0
 31
0.0
  0
LINE
  8
0
  6
CONTINUOUS
 62
     3
  5
10C
 10
52.25
 20
133.0
 30
0.0
 11
52.25
 21
126.0
 31
0.0
  0
LINE
  8
0
  6
CONTINUOUS
 62
     3
  5
10D
 10
67.75
 20
133.0
 30
0.0
 11
67.75
 21
126.0
 31
0.0
  0
LINE
  8
0
  6
CONTINUOUS
 62
     3
  5
10E
 10
73.594132
 20
135.0
 30
0.0
 11
46.405868
 21
135.0
 31
0.0
  0
LINE
  8
0
  6
CONTINUOUS
 62
     3
  5
10F
 10
75.5
 20
133.094132
 30
0.0
 11
75.5
 21
125.905868
 31
0.0
  0
LINE
  8
0
  6
CONTINUOUS
 62
     3
  5
110
 10
44.5
 20
133.094132
 30
0.0
 11
44.5
 21
125.905868
 31
0.0
  0
LINE
  8
0
  6
CONTINUOUS
 62
     3
  5
111
 10
45.0
 20
115.0
 30
0.0
 11
45.0
 21
112.0
 31
0.0
  0
LINE
  8
0
  6
CONTINUOUS
 62
     3
  5
112
 10
75.0
 20
115.0
 30
0.0
 11
75.0
 21
112.0
 31
0.0
  0
LINE
  8
0
  6
CONTINUOUS
 62
     3
  5
113
 10
75.0
 20
124.0
 30
0.0
 11
45.0
 21
124.0
 31
0.0
  0
LINE
  8
0
  6
CONTINUOUS
 62
     3
  5
114
 10
75.0
 20
112.0
 30
0.0
 11
45.0
 21
112.0
 31
0.0
  0
LINE
  8
0
  6
CONTINUOUS
 62
     3
  5
115
 10
45.0
 20
124.0
 30
0.0
 11
45.0
 21
121.0
 31
0.0
  0
LINE
  8
0
  6
CONTINUOUS
 62
     3
  5
116
 10
75.0
 20
124.0
 30
0.0
 11
75.0
 21
121.0
 31
0.0
  0
ARC
  8
0
  6
CONTINUOUS
 62
     3
  5
117
 10
18.0
 20
392.0
 30
0.0
 40
1.0
 50
90.0
 51
270.0
  0
ARC
  8
0
  6
CONTINUOUS
 62
     3
  5
118
 10
102.0
 20
392.0
 30
0.0
 40
1.0
 50
270.0
 51
90.0
  0
LINE
  8
0
  6
CONTINUOUS
 62
     3
  5
119
 10
103.0
 20
393.0
 30
0.0
 11
17.0
 21
393.0
 31
0.0
  0
LINE
  8
0
  6
CONTINUOUS
 62
     3
  5
11A
 10
70.65
 20
331.0
 30
0.0
 11
70.65
 21
344.0
 31
0.0
  0
LINE
  8
0
  6
CONTINUOUS
 62
     3
  5
11B
 10
49.35
 20
344.0
 30
0.0
 11
49.35
 21
331.0
 31
0.0
  0
CIRCLE
  8
0
  6
CONTINUOUS
 62
     3
  5
11C
 10
60.0
 20
338.0
 30
0.0
 40
1.0
  0
LINE
  8
0
  6
CONTINUOUS
 62
     3
  5
11D
 10
49.35
 20
331.0
 30
0.0
 11
70.65
 21
331.0
 31
0.0
  0
LINE
  8
0
  6
CONTINUOUS
 62
     3
  5
11E
 10
103.0
 20
404.5
 30
0.0
 11
17.0
 21
404.5
 31
0.0
  0
LINE
  8
0
  6
CONTINUOUS
 62
     3
  5
11F
 10
101.5
 20
406.5
 30
0.0
 11
18.5
 21
406.5
 31
0.0
  0
LINE
  8
0
  6
CONTINUOUS
 62
     3
  5
120
 10
40.0
 20
344.0
 30
0.0
 11
40.0
 21
347.021749
 31
0.0
  0
LINE
  8
0
  6
CONTINUOUS
 62
     3
  5
121
 10
80.0
 20
344.0
 30
0.0
 11
40.0
 21
344.0
 31
0.0
  0
LINE
  8
0
  6
CONTINUOUS
 62
     3
  5
122
 10
80.0
 20
347.021749
 30
0.0
 11
80.0
 21
344.0
 31
0.0
  0
ARC
  8
0
  6
CONTINUOUS
 62
     3
  5
123
 10
41.0
 20
370.0
 30
0.0
 40
23.0
 50
180.0
 51
270.0
  0
ARC
  8
0
  6
CONTINUOUS
 62
     3
  5
124
 10
79.0
 20
370.0
 30
0.0
 40
23.0
 50
270.0
 51
0.0
  0
LINE
  8
0
  6
CONTINUOUS
 62
     3
  5
125
 10
18.0
 20
370.0
 30
0.0
 11
18.0
 21
391.0
 31
0.0
  0
LINE
  8
0
  6
CONTINUOUS
 62
     3
  5
126
 10
79.0
 20
347.0
 30
0.0
 11
41.0
 21
347.0
 31
0.0
  0
LINE
  8
0
  6
CONTINUOUS
 62
     3
  5
127
 10
102.0
 20
391.0
 30
0.0
 11
102.0
 21
370.0
 31
0.0
  0
LINE
  8
0
  6
CONTINUOUS
 62
     3
  5
128
 10
102.0
 20
391.0
 30
0.0
 11
18.0
 21
391.0
 31
0.0
  0
LINE
  8
0
  6
CONTINUOUS
 62
     3
  5
129
 10
17.0
 20
404.5
 30
0.0
 11
17.0
 21
393.0
 31
0.0
  0
LINE
  8
0
  6
CONTINUOUS
 62
     3
  5
12A
 10
103.0
 20
404.5
 30
0.0
 11
103.0
 21
393.0
 31
0.0
  0
LINE
  8
0
  6
CONTINUOUS
 62
     3
  5
12B
 10
18.5
 20
406.5
 30
0.0
 11
17.0
 21
404.5
 31
0.0
  0
LINE
  8
0
  6
CONTINUOUS
 62
     3
  5
12C
 10
101.5
 20
406.5
 30
0.0
 11
103.0
 21
404.5
 31
0.0
  0
ARC
  8
0
  6
CONTINUOUS
 62
     3
  5
12D
 10
59.5
 20
434.0
 30
0.0
 40
41.0
 50
90.0
 51
180.0
  0
ARC
  8
0
  6
CONTINUOUS
 62
     3
  5
12E
 10
60.5
 20
434.0
 30
0.0
 40
41.0
 50
0.0
 51
90.0
  0
LINE
  8
0
  6
CONTINUOUS
 62
     3
  5
12F
 10
18.5
 20
434.0
 30
0.0
 11
18.5
 21
406.5
 31
0.0
  0
LINE
  8
0
  6
CONTINUOUS
 62
     3
  5
130
 10
60.5
 20
475.0
 30
0.0
 11
59.5
 21
475.0
 31
0.0
  0
LINE
  8
0
  6
CONTINUOUS
 62
     3
  5
131
 10
101.5
 20
406.5
 30
0.0
 11
101.5
 21
434.0
 31
0.0
  0
ENDSEC
  0
EOF
